  0
SECTION
  2
HEADER
  9
$ACADVER
  1
AC1027
  9
$ACADMAINTVER
 70
     8
  9
$DWGCODEPAGE
  3
ANSI_1252
  9
$REQUIREDVERSIONS
160
                 0
  9
$INSBASE
 10
0.0
 20
0.0
 30
0.0
  9
$EXTMIN
 10
1.000000000000000E+20
 20
1.000000000000000E+20
 30
1.000000000000000E+20
  9
$EXTMAX
 10
-1.000000000000000E+20
 20
-1.000000000000000E+20
 30
-1.000000000000000E+20
  9
$LIMMIN
 10
0.0
 20
0.0
  9
$LIMMAX
 10
12.0
 20
9.0
  9
$ORTHOMODE
 70
     0
  9
$REGENMODE
 70
     1
  9
$FILLMODE
 70
     1
  9
$QTEXTMODE
 70
     0
  9
$MIRRTEXT
 70
     1
  9
$LTSCALE
 40
1.0
  9
$ATTMODE
 70
     1
  9
$TEXTSIZE
 40
2.5
  9
$TRACEWID
 40
0.05
  9
$TEXTSTYLE
  7
Standard
  9
$CLAYER
  8
0
  9
$CELTYPE
  6
ByLayer
  9
$CECOLOR
 62
   178
  9
$CELTSCALE
 40
1.0
  9
$DISPSILH
 70
     0
  9
$DIMSCALE
 40
1.0
  9
$DIMASZ
 40
2.5
  9
$DIMEXO
 40
0.625
  9
$DIMDLI
 40
0.38
  9
$DIMRND
 40
0.0
  9
$DIMDLE
 40
0.0
  9
$DIMEXE
 40
1.25
  9
$DIMTP
 40
0.0
  9
$DIMTM
 40
0.0
  9
$DIMTXT
 40
2.5
  9
$DIMCEN
 40
0.09
  9
$DIMTSZ
 40
0.0
  9
$DIMTOL
 70
     0
  9
$DIMLIM
 70
     0
  9
$DIMTIH
 70
     1
  9
$DIMTOH
 70
     1
  9
$DIMSE1
 70
     0
  9
$DIMSE2
 70
     0
  9
$DIMTAD
 70
     0
  9
$DIMZIN
 70
     8
  9
$DIMBLK
  1

  9
$DIMASO
 70
     1
  9
$DIMSHO
 70
     1
  9
$DIMPOST
  1

  9
$DIMAPOST
  1

  9
$DIMALT
 70
     0
  9
$DIMALTD
 70
     2
  9
$DIMALTF
 40
25.4
  9
$DIMLFAC
 40
1.0
  9
$DIMTOFL
 70
     0
  9
$DIMTVP
 40
0.0
  9
$DIMTIX
 70
     0
  9
$DIMSOXD
 70
     0
  9
$DIMSAH
 70
     0
  9
$DIMBLK1
  1

  9
$DIMBLK2
  1

  9
$DIMSTYLE
  2
Standard
  9
$DIMCLRD
 70
   178
  9
$DIMCLRE
 70
   178
  9
$DIMCLRT
 70
   178
  9
$DIMTFAC
 40
1.0
  9
$DIMGAP
 40
0.625
  9
$DIMJUST
 70
     0
  9
$DIMSD1
 70
     0
  9
$DIMSD2
 70
     0
  9
$DIMTOLJ
 70
     1
  9
$DIMTZIN
 70
     0
  9
$DIMALTZ
 70
     0
  9
$DIMALTTZ
 70
     0
  9
$DIMUPT
 70
     0
  9
$DIMDEC
 70
     4
  9
$DIMTDEC
 70
     4
  9
$DIMALTU
 70
     2
  9
$DIMALTTD
 70
     2
  9
$DIMTXSTY
  7
Standard
  9
$DIMAUNIT
 70
     0
  9
$DIMADEC
 70
     0
  9
$DIMALTRND
 40
0.0
  9
$DIMAZIN
 70
     2
  9
$DIMDSEP
 70
    46
  9
$DIMATFIT
 70
     3
  9
$DIMFRAC
 70
     0
  9
$DIMLDRBLK
  1

  9
$DIMLUNIT
 70
     2
  9
$DIMLWD
 70
    -2
  9
$DIMLWE
 70
    -2
  9
$DIMTMOVE
 70
     0
  9
$DIMFXL
 40
1.0
  9
$DIMFXLON
 70
     0
  9
$DIMJOGANG
 40
0.7853981633974483
  9
$DIMTFILL
 70
     0
  9
$DIMTFILLCLR
 70
     0
  9
$DIMARCSYM
 70
     0
  9
$DIMLTYPE
  6

  9
$DIMLTEX1
  6

  9
$DIMLTEX2
  6

  9
$DIMTXTDIRECTION
 70
     0
  9
$LUNITS
 70
     2
  9
$LUPREC
 70
     4
  9
$SKETCHINC
 40
0.1
  9
$FILLETRAD
 40
0.5
  9
$AUNITS
 70
     0
  9
$AUPREC
 70
     0
  9
$MENU
  1
.
  9
$ELEVATION
 40
0.0
  9
$PELEVATION
 40
0.0
  9
$THICKNESS
 40
0.0
  9
$LIMCHECK
 70
     0
  9
$CHAMFERA
 40
0.0
  9
$CHAMFERB
 40
0.0
  9
$CHAMFERC
 40
0.0
  9
$CHAMFERD
 40
0.0
  9
$SKPOLY
 70
     0
  9
$TDCREATE
 40
2457357.666944445
  9
$TDUCREATE
 40
2457357.625277778
  9
$TDUPDATE
 40
2457357.666944445
  9
$TDUUPDATE
 40
2457357.625277778
  9
$TDINDWG
 40
0.0000000116
  9
$TDUSRTIMER
 40
0.0000000116
  9
$USRTIMER
 70
     1
  9
$ANGBASE
 50
0.0
  9
$ANGDIR
 70
     0
  9
$PDMODE
 70
     0
  9
$PDSIZE
 40
0.0
  9
$PLINEWID
 40
0.0
  9
$SPLFRAME
 70
     0
  9
$SPLINETYPE
 70
     6
  9
$SPLINESEGS
 70
     8
  9
$HANDSEED
  5
9C3
  9
$SURFTAB1
 70
     6
  9
$SURFTAB2
 70
     6
  9
$SURFTYPE
 70
     6
  9
$SURFU
 70
     6
  9
$SURFV
 70
     6
  9
$UCSBASE
  2

  9
$UCSNAME
  2

  9
$UCSORG
 10
0.0
 20
0.0
 30
0.0
  9
$UCSXDIR
 10
1.0
 20
0.0
 30
0.0
  9
$UCSYDIR
 10
0.0
 20
1.0
 30
0.0
  9
$UCSORTHOREF
  2

  9
$UCSORTHOVIEW
 70
     0
  9
$UCSORGTOP
 10
0.0
 20
0.0
 30
0.0
  9
$UCSORGBOTTOM
 10
0.0
 20
0.0
 30
0.0
  9
$UCSORGLEFT
 10
0.0
 20
0.0
 30
0.0
  9
$UCSORGRIGHT
 10
0.0
 20
0.0
 30
0.0
  9
$UCSORGFRONT
 10
0.0
 20
0.0
 30
0.0
  9
$UCSORGBACK
 10
0.0
 20
0.0
 30
0.0
  9
$PUCSBASE
  2

  9
$PUCSNAME
  2

  9
$PUCSORG
 10
0.0
 20
0.0
 30
0.0
  9
$PUCSXDIR
 10
1.0
 20
0.0
 30
0.0
  9
$PUCSYDIR
 10
0.0
 20
1.0
 30
0.0
  9
$PUCSORTHOREF
  2

  9
$PUCSORTHOVIEW
 70
     0
  9
$PUCSORGTOP
 10
0.0
 20
0.0
 30
0.0
  9
$PUCSORGBOTTOM
 10
0.0
 20
0.0
 30
0.0
  9
$PUCSORGLEFT
 10
0.0
 20
0.0
 30
0.0
  9
$PUCSORGRIGHT
 10
0.0
 20
0.0
 30
0.0
  9
$PUCSORGFRONT
 10
0.0
 20
0.0
 30
0.0
  9
$PUCSORGBACK
 10
0.0
 20
0.0
 30
0.0
  9
$USERI1
 70
     0
  9
$USERI2
 70
     0
  9
$USERI3
 70
     0
  9
$USERI4
 70
     0
  9
$USERI5
 70
     0
  9
$USERR1
 40
0.0
  9
$USERR2
 40
0.0
  9
$USERR3
 40
0.0
  9
$USERR4
 40
0.0
  9
$USERR5
 40
0.0
  9
$WORLDVIEW
 70
     1
  9
$SHADEDGE
 70
     3
  9
$SHADEDIF
 70
    70
  9
$TILEMODE
 70
     1
  9
$MAXACTVP
 70
     2
  9
$PINSBASE
 10
0.0
 20
0.0
 30
0.0
  9
$PLIMCHECK
 70
     0
  9
$PEXTMIN
 10
1.000000000000000E+20
 20
1.000000000000000E+20
 30
1.000000000000000E+20
  9
$PEXTMAX
 10
-1.000000000000000E+20
 20
-1.000000000000000E+20
 30
-1.000000000000000E+20
  9
$PLIMMIN
 10
0.0
 20
0.0
  9
$PLIMMAX
 10
12.0
 20
9.0
  9
$UNITMODE
 70
     0
  9
$VISRETAIN
 70
     1
  9
$PLINEGEN
 70
     0
  9
$PSLTSCALE
 70
     1
  9
$TREEDEPTH
 70
  3020
  9
$CMLSTYLE
  2
Standard
  9
$CMLJUST
 70
     0
  9
$CMLSCALE
 40
1.0
  9
$PROXYGRAPHICS
 70
     1
  9
$MEASUREMENT
 70
     1
  9
$CELWEIGHT
370
    -1
  9
$ENDCAPS
280
     0
  9
$JOINSTYLE
280
     0
  9
$LWDISPLAY
290
     0
  9
$INSUNITS
 70
     4
  9
$HYPERLINKBASE
  1

  9
$STYLESHEET
  1

  9
$XEDIT
290
     1
  9
$CEPSNTYPE
380
     0
  9
$PSTYLEMODE
290
     1
  9
$FINGERPRINTGUID
  2
{D156EBDD-BF3E-C762-CF16-3AFFBA520A1B}
  9
$VERSIONGUID
  2
{FAEB1C32-E019-11D5-929B-00C0DF256EC4}
  9
$EXTNAMES
290
     1
  9
$PSVPSCALE
 40
0.0
  9
$OLESTARTUP
290
     0
  9
$SORTENTS
280
   127
  9
$INDEXCTL
280
     0
  9
$HIDETEXT
280
     1
  9
$XCLIPFRAME
280
     2
  9
$HALOGAP
280
     0
  9
$OBSCOLOR
 70
   257
  9
$OBSLTYPE
280
     0
  9
$INTERSECTIONDISPLAY
280
     0
  9
$INTERSECTIONCOLOR
 70
   257
  9
$DIMASSOC
280
     2
  9
$PROJECTNAME
  1

  9
$CAMERADISPLAY
290
     0
  9
$LENSLENGTH
 40
50.0
  9
$CAMERAHEIGHT
 40
0.0
  9
$STEPSPERSEC
 40
2.0
  9
$STEPSIZE
 40
6.0
  9
$3DDWFPREC
 40
2.0
  9
$PSOLWIDTH
 40
0.25
  9
$PSOLHEIGHT
 40
4.0
  9
$LOFTANG1
 40
1.570796326794897
  9
$LOFTANG2
 40
1.570796326794897
  9
$LOFTMAG1
 40
0.0
  9
$LOFTMAG2
 40
0.0
  9
$LOFTPARAM
 70
     7
  9
$LOFTNORMALS
280
     1
  9
$LATITUDE
 40
37.795
  9
$LONGITUDE
 40
-122.394
  9
$NORTHDIRECTION
 40
0.0
  9
$TIMEZONE
 70
 -8000
  9
$LIGHTGLYPHDISPLAY
280
     1
  9
$TILEMODELIGHTSYNCH
280
     1
  9
$CMATERIAL
347
7A1
  9
$SOLIDHIST
280
     0
  9
$SHOWHIST
280
     1
  9
$DWFFRAME
280
     2
  9
$DGNFRAME
280
     2
  9
$REALWORLDSCALE
290
     1
  9
$INTERFERECOLOR
 62
   256
  9
$CSHADOW
280
     0
  9
$SHADOWPLANELOCATION
 40
0.0
  0
ENDSEC
  0
SECTION
  2
CLASSES
  0
CLASS
  1
ACDBDICTIONARYWDFLT
  2
AcDbDictionaryWithDefault
  3
ObjectDBX Classes
 90
        0
 91
        4
280
     0
281
     0
  0
CLASS
  1
VISUALSTYLE
  2
AcDbVisualStyle
  3
ObjectDBX Classes
 90
     4095
 91
        4
280
     0
281
     0
  0
CLASS
  1
MATERIAL
  2
AcDbMaterial
  3
ObjectDBX Classes
 90
     1153
 91
        4
280
     0
281
     0
  0
CLASS
  1
SCALE
  2
AcDbScale
  3
ObjectDBX Classes
 90
     1153
 91
        4
280
     0
281
     0
  0
CLASS
  1
TABLESTYLE
  2
AcDbTableStyle
  3
ObjectDBX Classes
 90
     4095
 91
        4
280
     0
281
     0
  0
CLASS
  1
MLEADERSTYLE
  2
AcDbMLeaderStyle
  3
ACDB_MLEADERSTYLE_CLASS
 90
     4095
 91
        4
280
     0
281
     0
  0
CLASS
  1
SUN
  2
AcDbSun
  3
SCENEOE
 90
     1153
 91
        4
280
     0
281
     0
  0
CLASS
  1
DICTIONARYVAR
  2
AcDbDictionaryVar
  3
ObjectDBX Classes
 90
        0
 91
        4
280
     0
281
     0
  0
CLASS
  1
CELLSTYLEMAP
  2
AcDbCellStyleMap
  3
ObjectDBX Classes
 90
     1152
 91
        4
280
     0
281
     0
  0
ENDSEC
  0
SECTION
  2
TABLES
  0
TABLE
  2
VPORT
  5
766
330
0
100
AcDbSymbolTable
 70
     1
  0
VPORT
  5
786
330
766
100
AcDbSymbolTableRecord
100
AcDbViewportTableRecord
  2
*Active
 70
     0
 10
0.0
 20
0.0
 11
1.0
 21
1.0
 12
10.42990654205607
 22
4.5
 13
0.0
 23
0.0
 14
0.5
 24
0.5
 15
0.5
 25
0.5
 16
0.0
 26
0.0
 36
1.0
 17
0.0
 27
0.0
 37
0.0
 40
9.0
 41
1.972972972850329
 42
50.0
 43
0.0
 44
0.0
 50
0.0
 51
0.0
 71
     0
 72
   100
 73
     1
 74
     3
 75
     0
 76
     0
 77
     0
 78
     0
281
     0
 65
     1
110
0.0
120
0.0
130
0.0
111
1.0
121
0.0
131
0.0
112
0.0
122
1.0
132
0.0
 79
     0
146
0.0
 60
     3
 61
     5
292
     1
282
     1
141
0.0
142
0.0
 63
   250
361
7CA
  0
ENDTAB
  0
TABLE
  2
LTYPE
  5
763
330
0
100
AcDbSymbolTable
 70
    49
  0
LTYPE
  5
771
330
763
100
AcDbSymbolTableRecord
100
AcDbLinetypeTableRecord
  2
ByBlock
 70
     0
  3

 72
    65
 73
     0
 40
0.0
  0
LTYPE
  5
772
330
763
100
AcDbSymbolTableRecord
100
AcDbLinetypeTableRecord
  2
ByLayer
 70
     0
  3

 72
    65
 73
     0
 40
0.0
  0
LTYPE
  5
773
330
763
100
AcDbSymbolTableRecord
100
AcDbLinetypeTableRecord
  2
Continuous
 70
     0
  3
Solid line
 72
    65
 73
     0
 40
0.0
  0
LTYPE
  5
7FE
330
763
100
AcDbSymbolTableRecord
100
AcDbLinetypeTableRecord
  2
ACAD_ISO02W100
 70
     0
  3
ISO dash __ __ __ __ __ __ __ __ __ __ __ __ __
 72
    65
 73
     2
 40
15.0
 49
12.0
 74
     0
 49
-3.0
 74
     0
  0
LTYPE
  5
7FF
330
763
100
AcDbSymbolTableRecord
100
AcDbLinetypeTableRecord
  2
ACAD_ISO03W100
 70
     0
  3
ISO dash space __    __    __    __    __    __
 72
    65
 73
     2
 40
30.0
 49
12.0
 74
     0
 49
-18.0
 74
     0
  0
LTYPE
  5
800
330
763
100
AcDbSymbolTableRecord
100
AcDbLinetypeTableRecord
  2
ACAD_ISO04W100
 70
     0
  3
ISO long-dash dot ____ . ____ . ____ . ____ . _
 72
    65
 73
     4
 40
30.0
 49
24.0
 74
     0
 49
-3.0
 74
     0
 49
0.0
 74
     0
 49
-3.0
 74
     0
  0
LTYPE
  5
801
330
763
100
AcDbSymbolTableRecord
100
AcDbLinetypeTableRecord
  2
ACAD_ISO05W100
 70
     0
  3
ISO long-dash double-dot ____ .. ____ .. ____ . 
 72
    65
 73
     6
 40
33.0
 49
24.0
 74
     0
 49
-3.0
 74
     0
 49
0.0
 74
     0
 49
-3.0
 74
     0
 49
0.0
 74
     0
 49
-3.0
 74
     0
  0
LTYPE
  5
802
330
763
100
AcDbSymbolTableRecord
100
AcDbLinetypeTableRecord
  2
ACAD_ISO06W100
 70
     0
  3
ISO long-dash triple-dot ____ ... ____ ... ____
 72
    65
 73
     8
 40
36.0
 49
24.0
 74
     0
 49
-3.0
 74
     0
 49
0.0
 74
     0
 49
-3.0
 74
     0
 49
0.0
 74
     0
 49
-3.0
 74
     0
 49
0.0
 74
     0
 49
-3.0
 74
     0
  0
LTYPE
  5
803
330
763
100
AcDbSymbolTableRecord
100
AcDbLinetypeTableRecord
  2
ACAD_ISO07W100
 70
     0
  3
ISO dot . . . . . . . . . . . . . . . . . . . . 
 72
    65
 73
     2
 40
3.0
 49
0.0
 74
     0
 49
-3.0
 74
     0
  0
LTYPE
  5
804
330
763
100
AcDbSymbolTableRecord
100
AcDbLinetypeTableRecord
  2
ACAD_ISO08W100
 70
     0
  3
ISO long-dash short-dash ____ __ ____ __ ____ _
 72
    65
 73
     4
 40
36.0
 49
24.0
 74
     0
 49
-3.0
 74
     0
 49
6.0
 74
     0
 49
-3.0
 74
     0
  0
LTYPE
  5
805
330
763
100
AcDbSymbolTableRecord
100
AcDbLinetypeTableRecord
  2
ACAD_ISO09W100
 70
     0
  3
ISO long-dash double-short-dash ____ __ __ ____
 72
    65
 73
     6
 40
45.0
 49
24.0
 74
     0
 49
-3.0
 74
     0
 49
6.0
 74
     0
 49
-3.0
 74
     0
 49
6.0
 74
     0
 49
-3.0
 74
     0
  0
LTYPE
  5
806
330
763
100
AcDbSymbolTableRecord
100
AcDbLinetypeTableRecord
  2
ACAD_ISO10W100
 70
     0
  3
ISO dash dot __ . __ . __ . __ . __ . __ . __ . 
 72
    65
 73
     4
 40
18.0
 49
12.0
 74
     0
 49
-3.0
 74
     0
 49
0.0
 74
     0
 49
-3.0
 74
     0
  0
LTYPE
  5
807
330
763
100
AcDbSymbolTableRecord
100
AcDbLinetypeTableRecord
  2
ACAD_ISO11W100
 70
     0
  3
ISO double-dash dot __ __ . __ __ . __ __ . __ _
 72
    65
 73
     6
 40
33.0
 49
12.0
 74
     0
 49
-3.0
 74
     0
 49
12.0
 74
     0
 49
-3.0
 74
     0
 49
0.0
 74
     0
 49
-3.0
 74
     0
  0
LTYPE
  5
808
330
763
100
AcDbSymbolTableRecord
100
AcDbLinetypeTableRecord
  2
ACAD_ISO12W100
 70
     0
  3
ISO dash double-dot __ . . __ . . __ . . __ . . 
 72
    65
 73
     6
 40
21.0
 49
12.0
 74
     0
 49
-3.0
 74
     0
 49
0.0
 74
     0
 49
-3.0
 74
     0
 49
0.0
 74
     0
 49
-3.0
 74
     0
  0
LTYPE
  5
809
330
763
100
AcDbSymbolTableRecord
100
AcDbLinetypeTableRecord
  2
ACAD_ISO13W100
 70
     0
  3
ISO double-dash double-dot __ __ . . __ __ . . _
 72
    65
 73
     8
 40
36.0
 49
12.0
 74
     0
 49
-3.0
 74
     0
 49
12.0
 74
     0
 49
-3.0
 74
     0
 49
0.0
 74
     0
 49
-3.0
 74
     0
 49
0.0
 74
     0
 49
-3.0
 74
     0
  0
LTYPE
  5
80A
330
763
100
AcDbSymbolTableRecord
100
AcDbLinetypeTableRecord
  2
ACAD_ISO14W100
 70
     0
  3
ISO dash triple-dot __ . . . __ . . . __ . . . _
 72
    65
 73
     8
 40
24.0
 49
12.0
 74
     0
 49
-3.0
 74
     0
 49
0.0
 74
     0
 49
-3.0
 74
     0
 49
0.0
 74
     0
 49
-3.0
 74
     0
 49
0.0
 74
     0
 49
-3.0
 74
     0
  0
LTYPE
  5
80B
330
763
100
AcDbSymbolTableRecord
100
AcDbLinetypeTableRecord
  2
ACAD_ISO15W100
 70
     0
  3
ISO double-dash triple-dot __ __ . . . __ __ . .
 72
    65
 73
    10
 40
39.0
 49
12.0
 74
     0
 49
-3.0
 74
     0
 49
12.0
 74
     0
 49
-3.0
 74
     0
 49
0.0
 74
     0
 49
-3.0
 74
     0
 49
0.0
 74
     0
 49
-3.0
 74
     0
 49
0.0
 74
     0
 49
-3.0
 74
     0
  0
LTYPE
  5
80C
330
763
100
AcDbSymbolTableRecord
100
AcDbLinetypeTableRecord
  2
BATTING
 70
     0
  3
Batting SSSSSSSSSSSSSSSSSSSSSSSSSSSSSSSSSSSSSSSSSSSSSSS
 72
    65
 73
     4
 40
10.16254
 49
0.00254
 74
     0
 49
-2.54
 74
     0
 49
-5.08
 74
     0
 49
-2.54
 74
     0
  0
LTYPE
  5
80D
330
763
100
AcDbSymbolTableRecord
100
AcDbLinetypeTableRecord
  2
BORDER
 70
     0
  3
Border __ __ . __ __ . __ __ . __ __ . __ __ .
 72
    65
 73
     6
 40
44.45
 49
12.7
 74
     0
 49
-6.35
 74
     0
 49
12.7
 74
     0
 49
-6.35
 74
     0
 49
0.0
 74
     0
 49
-6.35
 74
     0
  0
LTYPE
  5
80E
330
763
100
AcDbSymbolTableRecord
100
AcDbLinetypeTableRecord
  2
BORDER2
 70
     0
  3
Border (.5x) __.__.__.__.__.__.__.__.__.__.__.
 72
    65
 73
     6
 40
22.225
 49
6.35
 74
     0
 49
-3.175
 74
     0
 49
6.35
 74
     0
 49
-3.175
 74
     0
 49
0.0
 74
     0
 49
-3.175
 74
     0
  0
LTYPE
  5
80F
330
763
100
AcDbSymbolTableRecord
100
AcDbLinetypeTableRecord
  2
BORDERX2
 70
     0
  3
Border (2x) ____  ____  .  ____  ____  .  ___
 72
    65
 73
     6
 40
88.89999999999999
 49
25.4
 74
     0
 49
-12.7
 74
     0
 49
25.4
 74
     0
 49
-12.7
 74
     0
 49
0.0
 74
     0
 49
-12.7
 74
     0
  0
LTYPE
  5
810
330
763
100
AcDbSymbolTableRecord
100
AcDbLinetypeTableRecord
  2
CENTER
 70
     0
  3
Center ____ _ ____ _ ____ _ ____ _ ____ _ ____
 72
    65
 73
     4
 40
50.8
 49
31.75
 74
     0
 49
-6.35
 74
     0
 49
6.35
 74
     0
 49
-6.35
 74
     0
  0
LTYPE
  5
811
330
763
100
AcDbSymbolTableRecord
100
AcDbLinetypeTableRecord
  2
CENTER2
 70
     0
  3
Center (.5x) ___ _ ___ _ ___ _ ___ _ ___ _ ___
 72
    65
 73
     4
 40
28.575
 49
19.05
 74
     0
 49
-3.175
 74
     0
 49
3.175
 74
     0
 49
-3.175
 74
     0
  0
LTYPE
  5
812
330
763
100
AcDbSymbolTableRecord
100
AcDbLinetypeTableRecord
  2
CENTERX2
 70
     0
  3
Center (2x) ________  __  ________  __  _____
 72
    65
 73
     4
 40
101.6
 49
63.5
 74
     0
 49
-12.7
 74
     0
 49
12.7
 74
     0
 49
-12.7
 74
     0
  0
LTYPE
  5
813
330
763
100
AcDbSymbolTableRecord
100
AcDbLinetypeTableRecord
  2
DASHDOT
 70
     0
  3
Dash dot __ . __ . __ . __ . __ . __ . __ . __
 72
    65
 73
     4
 40
25.4
 49
12.7
 74
     0
 49
-6.35
 74
     0
 49
0.0
 74
     0
 49
-6.35
 74
     0
  0
LTYPE
  5
814
330
763
100
AcDbSymbolTableRecord
100
AcDbLinetypeTableRecord
  2
DASHDOT2
 70
     0
  3
Dash dot (.5x) _._._._._._._._._._._._._._._.
 72
    65
 73
     4
 40
12.7
 49
6.35
 74
     0
 49
-3.175
 74
     0
 49
0.0
 74
     0
 49
-3.175
 74
     0
  0
LTYPE
  5
815
330
763
100
AcDbSymbolTableRecord
100
AcDbLinetypeTableRecord
  2
DASHDOTX2
 70
     0
  3
Dash dot (2x) ____  .  ____  .  ____  .  ___
 72
    65
 73
     4
 40
50.8
 49
25.4
 74
     0
 49
-12.7
 74
     0
 49
0.0
 74
     0
 49
-12.7
 74
     0
  0
LTYPE
  5
816
330
763
100
AcDbSymbolTableRecord
100
AcDbLinetypeTableRecord
  2
DASHED
 70
     0
  3
Dashed __ __ __ __ __ __ __ __ __ __ __ __ __ _
 72
    65
 73
     2
 40
19.05
 49
12.7
 74
     0
 49
-6.35
 74
     0
  0
LTYPE
  5
817
330
763
100
AcDbSymbolTableRecord
100
AcDbLinetypeTableRecord
  2
DASHED2
 70
     0
  3
Dashed (.5x) _ _ _ _ _ _ _ _ _ _ _ _ _ _ _ _ _ 
 72
    65
 73
     2
 40
9.524999999999999
 49
6.35
 74
     0
 49
-3.175
 74
     0
  0
LTYPE
  5
818
330
763
100
AcDbSymbolTableRecord
100
AcDbLinetypeTableRecord
  2
DASHEDX2
 70
     0
  3
Dashed (2x) ____  ____  ____  ____  ____  ___
 72
    65
 73
     2
 40
38.09999999999999
 49
25.4
 74
     0
 49
-12.7
 74
     0
  0
LTYPE
  5
819
330
763
100
AcDbSymbolTableRecord
100
AcDbLinetypeTableRecord
  2
DIVIDE
 70
     0
  3
Divide ____ . . ____ . . ____ . . ____ . . ____
 72
    65
 73
     6
 40
31.75
 49
12.7
 74
     0
 49
-6.35
 74
     0
 49
0.0
 74
     0
 49
-6.35
 74
     0
 49
0.0
 74
     0
 49
-6.35
 74
     0
  0
LTYPE
  5
81A
330
763
100
AcDbSymbolTableRecord
100
AcDbLinetypeTableRecord
  2
DIVIDE2
 70
     0
  3
Divide (.5x) __..__..__..__..__..__..__..__.._
 72
    65
 73
     6
 40
15.875
 49
6.35
 74
     0
 49
-3.175
 74
     0
 49
0.0
 74
     0
 49
-3.175
 74
     0
 49
0.0
 74
     0
 49
-3.175
 74
     0
  0
LTYPE
  5
81B
330
763
100
AcDbSymbolTableRecord
100
AcDbLinetypeTableRecord
  2
DIVIDEX2
 70
     0
  3
Divide (2x) ________  .  .  ________  .  .  _
 72
    65
 73
     6
 40
63.5
 49
25.4
 74
     0
 49
-12.7
 74
     0
 49
0.0
 74
     0
 49
-12.7
 74
     0
 49
0.0
 74
     0
 49
-12.7
 74
     0
  0
LTYPE
  5
81C
330
763
100
AcDbSymbolTableRecord
100
AcDbLinetypeTableRecord
  2
DOT
 70
     0
  3
Dot . . . . . . . . . . . . . . . . . . . . . . . .
 72
    65
 73
     2
 40
6.35
 49
0.0
 74
     0
 49
-6.35
 74
     0
  0
LTYPE
  5
81D
330
763
100
AcDbSymbolTableRecord
100
AcDbLinetypeTableRecord
  2
DOT2
 70
     0
  3
Dot (.5x) ........................................
 72
    65
 73
     2
 40
3.175
 49
0.0
 74
     0
 49
-3.175
 74
     0
  0
LTYPE
  5
81E
330
763
100
AcDbSymbolTableRecord
100
AcDbLinetypeTableRecord
  2
DOTX2
 70
     0
  3
Dot (2x) .  .  .  .  .  .  .  .  .  .  .  .  .  .
 72
    65
 73
     2
 40
12.7
 49
0.0
 74
     0
 49
-12.7
 74
     0
  0
LTYPE
  5
81F
330
763
100
AcDbSymbolTableRecord
100
AcDbLinetypeTableRecord
  2
DRAINAGE
 70
     0
  3
Drainage ---->---->---->----
 72
    65
 73
     2
 40
10.16
 49
5.08
 74
     0
 49
5.08
 74
     0
  0
LTYPE
  5
820
330
763
100
AcDbSymbolTableRecord
100
AcDbLinetypeTableRecord
  2
DRAINAGE2
 70
     0
  3
Drainage reversed----<----<----<----
 72
    65
 73
     2
 40
10.16
 49
5.08
 74
     0
 49
5.08
 74
     0
  0
LTYPE
  5
821
330
763
100
AcDbSymbolTableRecord
100
AcDbLinetypeTableRecord
  2
FENCELINE1
 70
     0
  3
Fenceline circle ----0-----0----0-----0----0-----0--
 72
    65
 73
     4
 40
36.83
 49
6.35
 74
     0
 49
-2.54
 74
     0
 49
-2.54
 74
     0
 49
25.4
 74
     0
  0
LTYPE
  5
822
330
763
100
AcDbSymbolTableRecord
100
AcDbLinetypeTableRecord
  2
FENCELINE2
 70
     0
  3
Fenceline square ----[]-----[]----[]-----[]----[]---
 72
    65
 73
     4
 40
36.83
 49
6.35
 74
     0
 49
-2.54
 74
     0
 49
-2.54
 74
     0
 49
25.4
 74
     0
  0
LTYPE
  5
823
330
763
100
AcDbSymbolTableRecord
100
AcDbLinetypeTableRecord
  2
GAS_LINE
 70
     0
  3
Gas line ----GAS----GAS----GAS----GAS----GAS----GAS--
 72
    65
 73
     3
 40
24.13
 49
12.7
 74
     0
 49
-5.08
 74
     0
 49
-6.35
 74
     0
  0
LTYPE
  5
824
330
763
100
AcDbSymbolTableRecord
100
AcDbLinetypeTableRecord
  2
HIDDEN
 70
     0
  3
Hidden __ __ __ __ __ __ __ __ __ __ __ __ __ __
 72
    65
 73
     2
 40
9.524999999999999
 49
6.35
 74
     0
 49
-3.175
 74
     0
  0
LTYPE
  5
825
330
763
100
AcDbSymbolTableRecord
100
AcDbLinetypeTableRecord
  2
HIDDEN2
 70
     0
  3
Hidden (.5x) _ _ _ _ _ _ _ _ _ _ _ _ _ _ _ _ _ 
 72
    65
 73
     2
 40
4.762499999999999
 49
3.175
 74
     0
 49
-1.5875
 74
     0
  0
LTYPE
  5
826
330
763
100
AcDbSymbolTableRecord
100
AcDbLinetypeTableRecord
  2
HIDDENX2
 70
     0
  3
Hidden (2x) ____ ____ ____ ____ ____ ____ ____ 
 72
    65
 73
     2
 40
19.05
 49
12.7
 74
     0
 49
-6.35
 74
     0
  0
LTYPE
  5
827
330
763
100
AcDbSymbolTableRecord
100
AcDbLinetypeTableRecord
  2
HOT_WATER_SUPPLY
 70
     0
  3
Hot water supply ---- HW ---- HW ---- HW ----
 72
    65
 73
     3
 40
22.86
 49
12.7
 74
     0
 49
-5.08
 74
     0
 49
-5.08
 74
     0
  0
LTYPE
  5
828
330
763
100
AcDbSymbolTableRecord
100
AcDbLinetypeTableRecord
  2
PHANTOM
 70
     0
  3
Phantom ______  __  __  ______  __  __  ______ 
 72
    65
 73
     6
 40
63.50000000000001
 49
31.75
 74
     0
 49
-6.35
 74
     0
 49
6.35
 74
     0
 49
-6.35
 74
     0
 49
6.35
 74
     0
 49
-6.35
 74
     0
  0
LTYPE
  5
829
330
763
100
AcDbSymbolTableRecord
100
AcDbLinetypeTableRecord
  2
PHANTOM2
 70
     0
  3
Phantom (.5x) ___ _ _ ___ _ _ ___ _ _ ___ _ _
 72
    65
 73
     6
 40
31.75
 49
15.875
 74
     0
 49
-3.175
 74
     0
 49
3.175
 74
     0
 49
-3.175
 74
     0
 49
3.175
 74
     0
 49
-3.175
 74
     0
  0
LTYPE
  5
82A
330
763
100
AcDbSymbolTableRecord
100
AcDbLinetypeTableRecord
  2
PHANTOMX2
 70
     0
  3
Phantom (2x) ____________    ____    ____   _
 72
    65
 73
     6
 40
127.0
 49
63.5
 74
     0
 49
-12.7
 74
     0
 49
12.7
 74
     0
 49
-12.7
 74
     0
 49
12.7
 74
     0
 49
-12.7
 74
     0
  0
LTYPE
  5
82B
330
763
100
AcDbSymbolTableRecord
100
AcDbLinetypeTableRecord
  2
TRACKS
 70
     0
  3
Tracks -|-|-|-|-|-|-|-|-|-|-|-|-|-|-|-|-|-|-|-|-|-|-|-|-
 72
    65
 73
     2
 40
7.62
 49
3.81
 74
     0
 49
3.81
 74
     0
  0
LTYPE
  5
82C
330
763
100
AcDbSymbolTableRecord
100
AcDbLinetypeTableRecord
  2
ZIGZAG
 70
     0
  3
Zig zag /\/\/\/\/\/\/\/\/\/\/\/\/\/\/\/\/\/\/\/\/\/\/\/
 72
    65
 73
     4
 40
20.32254
 49
0.00254
 74
     0
 49
-5.08
 74
     0
 49
-10.16
 74
     0
 49
-5.08
 74
     0
  0
LTYPE
  5
82D
330
763
100
AcDbSymbolTableRecord
100
AcDbLinetypeTableRecord
  2
CENTERLINE
 70
     0
  3
_ 
 72
    65
 73
     5
 40
30.0
 49
12.0
 74
     0
 49
-1.5
 74
     0
 49
3.0
 74
     0
 49
-1.5
 74
     0
 49
12.0
 74
     0
  0
ENDTAB
  0
TABLE
  2
LAYER
  5
760
330
0
100
AcDbSymbolTable
 70
     7
  0
LAYER
  5
76E
330
760
100
AcDbSymbolTableRecord
100
AcDbLayerTableRecord
  2
0
 70
     0
 62
     7
420
 16777215
  6
Continuous
370
    25
390
76D
347
7A3
348
0
  0
LAYER
  5
82E
330
760
100
AcDbSymbolTableRecord
100
AcDbLayerTableRecord
  2
Origins
 70
     0
 62
     1
420
 16711680
  6
Continuous
370
    -3
390
76D
347
7A3
348
0
  0
LAYER
  5
82F
330
760
100
AcDbSymbolTableRecord
100
AcDbLayerTableRecord
  2
Cutout
 70
     0
 62
     1
420
 16711680
  6
Continuous
370
    -3
390
76D
347
7A3
348
0
  0
LAYER
  5
830
330
760
100
AcDbSymbolTableRecord
100
AcDbLayerTableRecord
  2
BEMASSUNG
 70
     0
 62
     3
420
    65280
  6
Continuous
370
    -3
390
76D
347
7A3
348
0
  0
LAYER
  5
831
330
760
100
AcDbSymbolTableRecord
100
AcDbLayerTableRecord
  2
INFO
 70
     0
 62
     2
420
 16776960
  6
Continuous
370
    -3
390
76D
347
7A3
348
0
  0
LAYER
  5
832
330
760
100
AcDbSymbolTableRecord
100
AcDbLayerTableRecord
  2
Dimension
 70
     0
 62
     7
420
 16777215
  6
Continuous
370
    -3
390
76D
347
7A3
348
0
  0
LAYER
  5
833
330
760
100
AcDbSymbolTableRecord
100
AcDbLayerTableRecord
  2
Defpoints
 70
     0
 62
     7
420
 16777215
  6
Continuous
290
     0
370
    -3
390
76D
347
7A3
348
0
  0
ENDTAB
  0
TABLE
  2
STYLE
  5
761
330
0
100
AcDbSymbolTable
 70
    18
  0
STYLE
  5
76F
330
761
100
AcDbSymbolTableRecord
100
AcDbTextStyleTableRecord
  2
Standard
 70
     0
 40
0.0
 41
1.0
 50
0.0
 71
     0
 42
2.5
  3
txt
  4

  0
STYLE
  5
7FC
330
761
100
AcDbSymbolTableRecord
100
AcDbTextStyleTableRecord
  2
QCADDimTextStyle
 70
     0
 40
0.0
 41
1.0
 50
0.0
 71
     0
 42
2.5
  3
txt
  4

  0
STYLE
  5
897
330
761
100
AcDbSymbolTableRecord
100
AcDbTextStyleTableRecord
  2
textstyle0
 70
     0
 40
0.0
 41
1.0
 50
0.0
 71
     0
 42
2.5
  3

  4

1001
ACAD
1000
monotxt
1071
        0
  0
STYLE
  5
8CA
330
761
100
AcDbSymbolTableRecord
100
AcDbTextStyleTableRecord
  2
textstyle1
 70
     0
 40
0.0
 41
1.0
 50
0.0
 71
     0
 42
2.5
  3

  4

1001
ACAD
1000
monotxt
1071
        0
  0
STYLE
  5
8CB
330
761
100
AcDbSymbolTableRecord
100
AcDbTextStyleTableRecord
  2
textstyle2
 70
     0
 40
0.0
 41
1.0
 50
0.0
 71
     0
 42
2.5
  3

  4

1001
ACAD
1000
monotxt
1071
        0
  0
STYLE
  5
8CC
330
761
100
AcDbSymbolTableRecord
100
AcDbTextStyleTableRecord
  2
textstyle3
 70
     0
 40
0.0
 41
1.0
 50
0.0
 71
     0
 42
2.5
  3

  4

1001
ACAD
1000
monotxt
1071
        0
  0
STYLE
  5
8CD
330
761
100
AcDbSymbolTableRecord
100
AcDbTextStyleTableRecord
  2
textstyle4
 70
     0
 40
0.0
 41
1.0
 50
0.0
 71
     0
 42
2.5
  3

  4

1001
ACAD
1000
monotxt
1071
        0
  0
STYLE
  5
8CE
330
761
100
AcDbSymbolTableRecord
100
AcDbTextStyleTableRecord
  2
textstyle5
 70
     0
 40
0.0
 41
1.0
 50
0.0
 71
     0
 42
2.5
  3

  4

1001
ACAD
1000
monotxt
1071
        0
  0
STYLE
  5
8CF
330
761
100
AcDbSymbolTableRecord
100
AcDbTextStyleTableRecord
  2
textstyle6
 70
     0
 40
0.0
 41
1.0
 50
0.0
 71
     0
 42
2.5
  3

  4

1001
ACAD
1000
monotxt
1071
        0
  0
STYLE
  5
8D0
330
761
100
AcDbSymbolTableRecord
100
AcDbTextStyleTableRecord
  2
textstyle7
 70
     0
 40
0.0
 41
1.0
 50
0.0
 71
     0
 42
2.5
  3

  4

1001
ACAD
1000
monotxt
1071
        0
  0
STYLE
  5
8D1
330
761
100
AcDbSymbolTableRecord
100
AcDbTextStyleTableRecord
  2
textstyle8
 70
     0
 40
0.0
 41
1.0
 50
0.0
 71
     0
 42
2.5
  3

  4

1001
ACAD
1000
monotxt
1071
        0
  0
STYLE
  5
8D2
330
761
100
AcDbSymbolTableRecord
100
AcDbTextStyleTableRecord
  2
textstyle9
 70
     0
 40
0.0
 41
1.0
 50
0.0
 71
     0
 42
2.5
  3

  4

1001
ACAD
1000
monotxt
1071
        0
  0
STYLE
  5
8D3
330
761
100
AcDbSymbolTableRecord
100
AcDbTextStyleTableRecord
  2
textstyle10
 70
     0
 40
0.0
 41
1.0
 50
0.0
 71
     0
 42
2.5
  3

  4

1001
ACAD
1000
monotxt
1071
        0
  0
STYLE
  5
8D4
330
761
100
AcDbSymbolTableRecord
100
AcDbTextStyleTableRecord
  2
textstyle11
 70
     0
 40
0.0
 41
1.0
 50
0.0
 71
     0
 42
2.5
  3

  4

1001
ACAD
1000
monotxt
1071
        0
  0
STYLE
  5
8D5
330
761
100
AcDbSymbolTableRecord
100
AcDbTextStyleTableRecord
  2
textstyle12
 70
     0
 40
0.0
 41
1.0
 50
0.0
 71
     0
 42
2.5
  3

  4

1001
ACAD
1000
monotxt
1071
        0
  0
STYLE
  5
8D6
330
761
100
AcDbSymbolTableRecord
100
AcDbTextStyleTableRecord
  2
textstyle13
 70
     0
 40
0.0
 41
1.0
 50
0.0
 71
     0
 42
2.5
  3

  4

1001
ACAD
1000
monotxt
1071
        0
  0
STYLE
  5
8D7
330
761
100
AcDbSymbolTableRecord
100
AcDbTextStyleTableRecord
  2
textstyle14
 70
     0
 40
0.0
 41
1.0
 50
0.0
 71
     0
 42
2.5
  3

  4

1001
ACAD
1000
monotxt
1071
        0
  0
STYLE
  5
8E5
330
761
100
AcDbSymbolTableRecord
100
AcDbTextStyleTableRecord
  2
textstyle15
 70
     0
 40
0.0
 41
1.0
 50
0.0
 71
     0
 42
2.5
  3

  4

1001
ACAD
1000
Arial
1071
        0
  0
ENDTAB
  0
TABLE
  2
VIEW
  5
764
330
0
100
AcDbSymbolTable
 70
     0
  0
ENDTAB
  0
TABLE
  2
UCS
  5
765
330
0
100
AcDbSymbolTable
 70
     0
  0
ENDTAB
  0
TABLE
  2
APPID
  5
767
330
0
100
AcDbSymbolTable
 70
     2
  0
APPID
  5
770
330
767
100
AcDbSymbolTableRecord
100
AcDbRegAppTableRecord
  2
ACAD
 70
     0
  0
APPID
  5
7CB
330
767
100
AcDbSymbolTableRecord
100
AcDbRegAppTableRecord
  2
QCAD
 70
     0
  0
ENDTAB
  0
TABLE
  2
DIMSTYLE
  5
768
330
0
100
AcDbSymbolTable
 70
     2
100
AcDbDimStyleTable
  0
DIMSTYLE
105
784
330
768
100
AcDbSymbolTableRecord
100
AcDbDimStyleTableRecord
  2
Standard
 70
     0
178
     0
340
76F
  0
DIMSTYLE
105
7FD
102
{ACAD_REACTORS
330
A6
330
A7
330
A8
330
A9
330
AA
330
DA
330
DB
330
DC
330
E4
330
E5
330
E6
330
E7
330
1DB
330
1FC
330
32E
330
331
330
345
330
346
330
347
330
348
330
34A
330
34B
330
34D
330
34E
330
351
330
352
330
353
330
682
330
684
330
685
330
686
102
}
330
768
100
AcDbSymbolTableRecord
100
AcDbDimStyleTableRecord
  2
QCADDimStyle
 70
     0
 41
2.5
 42
0.625
 44
1.25
 73
     0
 77
     1
140
2.5
147
0.625
178
     0
340
7FC
  0
ENDTAB
  0
TABLE
  2
BLOCK_RECORD
  5
75F
330
0
100
AcDbSymbolTable
 70
    33
  0
BLOCK_RECORD
  5
77C
330
75F
100
AcDbSymbolTableRecord
100
AcDbBlockTableRecord
  2
*Model_Space
340
77F
 70
     0
280
     1
281
     0
  0
BLOCK_RECORD
  5
778
330
75F
100
AcDbSymbolTableRecord
100
AcDbBlockTableRecord
  2
*Paper_Space
340
77B
 70
     0
280
     1
281
     0
  0
BLOCK_RECORD
  5
780
330
75F
100
AcDbSymbolTableRecord
100
AcDbBlockTableRecord
  2
*Paper_Space0
340
783
 70
     0
280
     1
281
     0
  0
BLOCK_RECORD
  5
834
330
75F
100
AcDbSymbolTableRecord
100
AcDbBlockTableRecord
  2
block 1
340
0
 70
     0
280
     1
281
     0
  0
BLOCK_RECORD
  5
837
330
75F
100
AcDbSymbolTableRecord
100
AcDbBlockTableRecord
  2
*D2
340
0
 70
     0
280
     1
281
     0
  0
BLOCK_RECORD
  5
843
330
75F
100
AcDbSymbolTableRecord
100
AcDbBlockTableRecord
  2
*D3
340
0
 70
     0
280
     1
281
     0
  0
BLOCK_RECORD
  5
850
330
75F
100
AcDbSymbolTableRecord
100
AcDbBlockTableRecord
  2
*D4
340
0
 70
     0
280
     1
281
     0
  0
BLOCK_RECORD
  5
85D
330
75F
100
AcDbSymbolTableRecord
100
AcDbBlockTableRecord
  2
*D5
340
0
 70
     0
280
     1
281
     0
  0
BLOCK_RECORD
  5
86A
330
75F
100
AcDbSymbolTableRecord
100
AcDbBlockTableRecord
  2
*D6
340
0
 70
     0
280
     1
281
     0
  0
BLOCK_RECORD
  5
872
330
75F
100
AcDbSymbolTableRecord
100
AcDbBlockTableRecord
  2
*D7
340
0
 70
     0
280
     1
281
     0
  0
BLOCK_RECORD
  5
882
330
75F
100
AcDbSymbolTableRecord
100
AcDbBlockTableRecord
  2
*D8
340
0
 70
     0
280
     1
281
     0
  0
BLOCK_RECORD
  5
88F
330
75F
100
AcDbSymbolTableRecord
100
AcDbBlockTableRecord
  2
*D9
340
0
 70
     0
280
     1
281
     0
  0
BLOCK_RECORD
  5
898
330
75F
100
AcDbSymbolTableRecord
100
AcDbBlockTableRecord
  2
*D10
340
0
 70
     0
280
     1
281
     0
  0
BLOCK_RECORD
  5
8A5
330
75F
100
AcDbSymbolTableRecord
100
AcDbBlockTableRecord
  2
*D11
340
0
 70
     0
280
     1
281
     0
  0
BLOCK_RECORD
  5
8B1
330
75F
100
AcDbSymbolTableRecord
100
AcDbBlockTableRecord
  2
*D12
340
0
 70
     0
280
     1
281
     0
  0
BLOCK_RECORD
  5
8BE
330
75F
100
AcDbSymbolTableRecord
100
AcDbBlockTableRecord
  2
*D13
340
0
 70
     0
280
     1
281
     0
  0
BLOCK_RECORD
  5
8D8
330
75F
100
AcDbSymbolTableRecord
100
AcDbBlockTableRecord
  2
*D14
340
0
 70
     0
280
     1
281
     0
  0
BLOCK_RECORD
  5
8E6
330
75F
100
AcDbSymbolTableRecord
100
AcDbBlockTableRecord
  2
*D15
340
0
 70
     0
280
     1
281
     0
  0
BLOCK_RECORD
  5
8EE
330
75F
100
AcDbSymbolTableRecord
100
AcDbBlockTableRecord
  2
*D16
340
0
 70
     0
280
     1
281
     0
  0
BLOCK_RECORD
  5
8FA
330
75F
100
AcDbSymbolTableRecord
100
AcDbBlockTableRecord
  2
*D17
340
0
 70
     0
280
     1
281
     0
  0
BLOCK_RECORD
  5
906
330
75F
100
AcDbSymbolTableRecord
100
AcDbBlockTableRecord
  2
*D18
340
0
 70
     0
280
     1
281
     0
  0
BLOCK_RECORD
  5
912
330
75F
100
AcDbSymbolTableRecord
100
AcDbBlockTableRecord
  2
*D19
340
0
 70
     0
280
     1
281
     0
  0
BLOCK_RECORD
  5
91B
330
75F
100
AcDbSymbolTableRecord
100
AcDbBlockTableRecord
  2
*D20
340
0
 70
     0
280
     1
281
     0
  0
BLOCK_RECORD
  5
928
330
75F
100
AcDbSymbolTableRecord
100
AcDbBlockTableRecord
  2
*D21
340
0
 70
     0
280
     1
281
     0
  0
BLOCK_RECORD
  5
934
330
75F
100
AcDbSymbolTableRecord
100
AcDbBlockTableRecord
  2
*D22
340
0
 70
     0
280
     1
281
     0
  0
BLOCK_RECORD
  5
941
330
75F
100
AcDbSymbolTableRecord
100
AcDbBlockTableRecord
  2
*D23
340
0
 70
     0
280
     1
281
     0
  0
BLOCK_RECORD
  5
94D
330
75F
100
AcDbSymbolTableRecord
100
AcDbBlockTableRecord
  2
*D24
340
0
 70
     0
280
     1
281
     0
  0
BLOCK_RECORD
  5
959
330
75F
100
AcDbSymbolTableRecord
100
AcDbBlockTableRecord
  2
*D25
340
0
 70
     0
280
     1
281
     0
  0
BLOCK_RECORD
  5
965
330
75F
100
AcDbSymbolTableRecord
100
AcDbBlockTableRecord
  2
*D26
340
0
 70
     0
280
     1
281
     0
  0
BLOCK_RECORD
  5
971
330
75F
100
AcDbSymbolTableRecord
100
AcDbBlockTableRecord
  2
*D27
340
0
 70
     0
280
     1
281
     0
  0
BLOCK_RECORD
  5
97D
330
75F
100
AcDbSymbolTableRecord
100
AcDbBlockTableRecord
  2
*D28
340
0
 70
     0
280
     1
281
     0
  0
BLOCK_RECORD
  5
98A
330
75F
100
AcDbSymbolTableRecord
100
AcDbBlockTableRecord
  2
*D29
340
0
 70
     0
280
     1
281
     0
  0
BLOCK_RECORD
  5
996
330
75F
100
AcDbSymbolTableRecord
100
AcDbBlockTableRecord
  2
*D30
340
0
 70
     0
280
     1
281
     0
  0
BLOCK_RECORD
  5
9A2
330
75F
100
AcDbSymbolTableRecord
100
AcDbBlockTableRecord
  2
*D31
340
0
 70
     0
280
     1
281
     0
  0
BLOCK_RECORD
  5
9AE
330
75F
100
AcDbSymbolTableRecord
100
AcDbBlockTableRecord
  2
*D32
340
0
 70
     0
280
     1
281
     0
  0
ENDTAB
  0
ENDSEC
  0
SECTION
  2
BLOCKS
  0
BLOCK
  5
77D
330
77C
100
AcDbEntity
  8
0
100
AcDbBlockBegin
  2
*Model_Space
 70
     0
 10
0.0
 20
0.0
 30
0.0
  3
*Model_Space
  1
*Model_Space
  0
ENDBLK
  5
77E
330
77C
100
AcDbEntity
  8
0
100
AcDbBlockEnd
  0
BLOCK
  5
779
330
778
100
AcDbEntity
 67
     1
  8
0
100
AcDbBlockBegin
  2
*Paper_Space
 70
     0
 10
0.0
 20
0.0
 30
0.0
  3
*Paper_Space
  1
*Paper_Space
  0
ENDBLK
  5
77A
330
778
100
AcDbEntity
 67
     1
  8
0
100
AcDbBlockEnd
  0
BLOCK
  5
781
330
780
100
AcDbEntity
  8
0
100
AcDbBlockBegin
  2
*Paper_Space0
 70
     0
 10
0.0
 20
0.0
 30
0.0
  3
*Paper_Space0
  1
*Paper_Space0
  0
ENDBLK
  5
782
330
780
100
AcDbEntity
  8
0
100
AcDbBlockEnd
  0
BLOCK
  5
835
330
834
100
AcDbEntity
  8
0
100
AcDbBlockBegin
  2
block 1
 70
     0
 10
0.0
 20
0.0
 30
0.0
  3
block 1
  1
block 1
  0
CIRCLE
  5
8A
330
834
100
AcDbEntity
  8
Cutout
100
AcDbCircle
 10
7.099999999999999
 20
3.7
 30
0.0
 40
1.6
  0
CIRCLE
  5
8B
330
834
100
AcDbEntity
  8
Cutout
100
AcDbCircle
 10
7.099999999999999
 20
126.2
 30
0.0
 40
1.6
  0
CIRCLE
  5
8C
330
834
100
AcDbEntity
  8
Cutout
100
AcDbCircle
 10
419.7
 20
3.7
 30
0.0
 40
1.6
  0
CIRCLE
  5
8D
330
834
100
AcDbEntity
  8
Cutout
100
AcDbCircle
 10
419.7
 20
126.2
 30
0.0
 40
1.6
  0
CIRCLE
  5
8E
330
834
100
AcDbEntity
  8
Cutout
100
AcDbCircle
 10
33.06
 20
98.44
 30
0.0
 40
5.9
  0
CIRCLE
  5
8F
330
834
100
AcDbEntity
  8
Cutout
100
AcDbCircle
 10
54.64999999999999
 20
98.44
 30
0.0
 40
5.9
  0
CIRCLE
  5
90
330
834
100
AcDbEntity
  8
Cutout
100
AcDbCircle
 10
83.86
 20
98.44
 30
0.0
 40
5.9
  0
CIRCLE
  5
91
330
834
100
AcDbEntity
  8
Cutout
100
AcDbCircle
 10
105.45
 20
98.44000000000001
 30
0.0
 40
5.9
  0
CIRCLE
  5
92
330
834
100
AcDbEntity
  8
Cutout
100
AcDbCircle
 10
134.66
 20
98.44
 30
0.0
 40
5.9
  0
CIRCLE
  5
93
330
834
100
AcDbEntity
  8
Cutout
100
AcDbCircle
 10
156.25
 20
98.44
 30
0.0
 40
5.9
  0
CIRCLE
  5
94
330
834
100
AcDbEntity
  8
Cutout
100
AcDbCircle
 10
185.46
 20
98.44
 30
0.0
 40
5.9
  0
CIRCLE
  5
95
330
834
100
AcDbEntity
  8
Cutout
100
AcDbCircle
 10
207.05
 20
98.44
 30
0.0
 40
5.9
  0
CIRCLE
  5
96
330
834
100
AcDbEntity
  8
Cutout
100
AcDbCircle
 10
236.26
 20
98.44
 30
0.0
 40
5.9
  0
CIRCLE
  5
97
330
834
100
AcDbEntity
  8
Cutout
100
AcDbCircle
 10
257.85
 20
98.43999999999998
 30
0.0
 40
5.9
  0
CIRCLE
  5
98
330
834
100
AcDbEntity
  8
Cutout
100
AcDbCircle
 10
287.06
 20
98.43999999999998
 30
0.0
 40
5.9
  0
CIRCLE
  5
99
330
834
100
AcDbEntity
  8
Cutout
100
AcDbCircle
 10
308.65
 20
98.44
 30
0.0
 40
5.9
  0
CIRCLE
  5
9A
330
834
100
AcDbEntity
  8
Cutout
100
AcDbCircle
 10
337.86
 20
98.43999999999998
 30
0.0
 40
5.9
  0
CIRCLE
  5
9B
330
834
100
AcDbEntity
  8
Cutout
100
AcDbCircle
 10
359.45
 20
98.44
 30
0.0
 40
5.9
  0
CIRCLE
  5
9C
330
834
100
AcDbEntity
  8
Cutout
100
AcDbCircle
 10
408.98
 20
84.5
 30
0.0
 40
1.6
  0
CIRCLE
  5
9D
330
834
100
AcDbEntity
  8
Cutout
100
AcDbCircle
 10
408.98
 20
45.5
 30
0.0
 40
1.6
  0
LINE
  5
9E
330
834
100
AcDbEntity
  8
Cutout
100
AcDbLine
 10
397.23
 20
81.25
 30
0.0
 11
420.73
 21
81.25
 31
0.0
  0
LINE
  5
9F
330
834
100
AcDbEntity
  8
Cutout
100
AcDbLine
 10
423.23
 20
78.75
 30
0.0
 11
423.23
 21
51.25
 31
0.0
  0
LINE
  5
A0
330
834
100
AcDbEntity
  8
Cutout
100
AcDbLine
 10
420.73
 20
48.75
 30
0.0
 11
397.23
 21
48.75
 31
0.0
  0
LINE
  5
A1
330
834
100
AcDbEntity
  8
Cutout
100
AcDbLine
 10
394.73
 20
51.25
 30
0.0
 11
394.73
 21
78.75
 31
0.0
  0
ARC
  5
A2
330
834
100
AcDbEntity
  8
Cutout
100
AcDbCircle
 10
397.23
 20
78.75
 30
0.0
 40
2.5
100
AcDbArc
 50
90.0
 51
180.0
  0
ARC
  5
A3
330
834
100
AcDbEntity
  8
Cutout
100
AcDbCircle
 10
420.73
 20
78.75
 30
0.0
 40
2.5
100
AcDbArc
 50
0.0
 51
90.0
  0
ARC
  5
A4
330
834
100
AcDbEntity
  8
Cutout
100
AcDbCircle
 10
420.73
 20
51.25
 30
0.0
 40
2.5
100
AcDbArc
 50
270.0
 51
0.0
  0
ARC
  5
A5
330
834
100
AcDbEntity
  8
Cutout
100
AcDbCircle
 10
397.23
 20
51.25
 30
0.0
 40
2.5
100
AcDbArc
 50
180.0
 51
270.0
  0
DIMENSION
  5
A6
330
834
100
AcDbEntity
  8
BEMASSUNG
100
AcDbDimension
280
     0
  2
*D2
 10
27.16
 20
98.44
 30
0.0
 11
28.3945238095238
 21
98.44
 31
0.0
 70
   163
 71
     5
 42
11.79999999999999
 73
     0
 74
     0
 75
     0
  3
QCADDimStyle
100
AcDbDiametricDimension
 15
38.95999999999999
 25
98.44000000000001
 35
0.0
 40
0.0
1001
ACAD
1000
DSTYLE
1002
{
1070
   279
1070
     2
1070
    41
1040
2.5
1070
    79
1070
     2
1070
   176
1070
     0
1070
   177
1070
     0
1070
   178
1070
     0
1070
    44
1040
1.25
1070
    42
1040
0.625
1070
   147
1040
0.625
1070
   140
1040
2.5
1070
    78
1070
     8
1002
}
  0
DIMENSION
  5
A7
330
834
100
AcDbEntity
  8
BEMASSUNG
100
AcDbDimension
280
     0
  2
*D3
 10
391.294324
 20
48.75000000000013
 30
0.0
 11
391.294324
 21
64.99999999999999
 31
0.0
 70
   160
 71
     5
 42
32.49999999999996
 73
     0
 74
     0
 75
     0
  3
QCADDimStyle
100
AcDbAlignedDimension
 13
408.98
 23
81.25000000000009
 33
0.0
 14
408.98
 24
48.75000000000012
 34
0.0
 50
90.0
100
AcDbRotatedDimension
1001
ACAD
1000
DSTYLE
1002
{
1070
   279
1070
     2
1070
    41
1040
2.5
1070
    79
1070
     2
1070
   176
1070
     0
1070
   177
1070
     0
1070
   178
1070
     0
1070
    44
1040
1.25
1070
    42
1040
0.625
1070
   147
1040
0.625
1070
   140
1040
2.5
1070
    78
1070
     8
1002
}
  0
DIMENSION
  5
A8
330
834
100
AcDbEntity
  8
BEMASSUNG
100
AcDbDimension
280
     0
  2
*D4
 10
384.155167
 20
45.49999999999991
 30
0.0
 11
384.155167
 21
64.9999999999999
 31
0.0
 70
   160
 71
     5
 42
39.00000000000014
 73
     0
 74
     0
 75
     0
  3
QCADDimStyle
100
AcDbAlignedDimension
 13
408.98
 23
84.50000000000004
 33
0.0
 14
408.98
 24
45.4999999999999
 34
0.0
 50
90.0
100
AcDbRotatedDimension
1001
ACAD
1000
DSTYLE
1002
{
1070
   279
1070
     2
1070
    41
1040
2.5
1070
    79
1070
     2
1070
   176
1070
     0
1070
   177
1070
     0
1070
   178
1070
     0
1070
    44
1040
1.25
1070
    42
1040
0.625
1070
   147
1040
0.625
1070
   140
1040
2.5
1070
    78
1070
     8
1002
}
  0
DIMENSION
  5
A9
330
834
100
AcDbEntity
  8
BEMASSUNG
100
AcDbDimension
280
     0
  2
*D5
 10
423.23
 20
37.62494193921124
 30
0.0
 11
408.98
 21
37.62494193921124
 31
0.0
 70
   160
 71
     5
 42
28.5
 73
     0
 74
     0
 75
     0
  3
QCADDimStyle
100
AcDbAlignedDimension
 13
394.73
 23
65.00000000000016
 33
0.0
 14
423.23
 24
64.99999999999986
 34
0.0
100
AcDbRotatedDimension
1001
ACAD
1000
DSTYLE
1002
{
1070
   279
1070
     2
1070
    41
1040
2.5
1070
    79
1070
     2
1070
   176
1070
     0
1070
   177
1070
     0
1070
   178
1070
     0
1070
    44
1040
1.25
1070
    42
1040
0.625
1070
   147
1040
0.625
1070
   140
1040
2.5
1070
    78
1070
     8
1002
}
  0
DIMENSION
  5
AA
330
834
100
AcDbEntity
  8
BEMASSUNG
100
AcDbDimension
280
     0
  2
*D6
 10
397.23
 20
51.25000000000009
 30
0.0
 11
389.0334365084118
 21
42.57536967548829
 31
0.0
 70
   164
 71
     5
 42
2.500000242091199
 73
     0
 74
     0
 75
     0
  3
QCADDimStyle
100
AcDbRadialDimension
 15
395.513014
 25
49.43287031660928
 35
0.0
 40
0.0
1001
ACAD
1000
DSTYLE
1002
{
1070
   279
1070
     2
1070
    41
1040
2.5
1070
    79
1070
     2
1070
   176
1070
     0
1070
   177
1070
     0
1070
   178
1070
     0
1070
    44
1040
1.25
1070
    42
1040
0.625
1070
   147
1040
0.625
1070
   140
1040
2.5
1070
    78
1070
     8
1002
}
  0
LINE
  5
AB
330
834
100
AcDbEntity
  8
Origins
  6
CENTERLINE
100
AcDbLine
 10
411.15
 20
45.5
 30
0.0
 11
406.81
 21
45.5
 31
0.0
  0
LINE
  5
AC
330
834
100
AcDbEntity
  8
Origins
  6
CENTERLINE
100
AcDbLine
 10
408.98
 20
43.32999999999998
 30
0.0
 11
408.98
 21
47.67000000000002
 31
0.0
  0
LINE
  5
AD
330
834
100
AcDbEntity
  8
Origins
  6
CENTERLINE
100
AcDbLine
 10
411.15
 20
84.5
 30
0.0
 11
406.81
 21
84.5
 31
0.0
  0
LINE
  5
AE
330
834
100
AcDbEntity
  8
Origins
  6
CENTERLINE
100
AcDbLine
 10
408.98
 20
82.32999999999998
 30
0.0
 11
408.98
 21
86.67000000000002
 31
0.0
  0
LINE
  5
AF
330
834
100
AcDbEntity
  8
Origins
  6
CENTERLINE
100
AcDbLine
 10
421.87
 20
126.2
 30
0.0
 11
417.53
 21
126.2
 31
0.0
  0
LINE
  5
B0
330
834
100
AcDbEntity
  8
Origins
  6
CENTERLINE
100
AcDbLine
 10
419.7
 20
124.03
 30
0.0
 11
419.7
 21
128.37
 31
0.0
  0
LINE
  5
B1
330
834
100
AcDbEntity
  8
Origins
  6
CENTERLINE
100
AcDbLine
 10
421.87
 20
3.7
 30
0.0
 11
417.53
 21
3.700000000000001
 31
0.0
  0
LINE
  5
B2
330
834
100
AcDbEntity
  8
Origins
  6
CENTERLINE
100
AcDbLine
 10
419.7
 20
1.529999999999984
 30
0.0
 11
419.7
 21
5.870000000000016
 31
0.0
  0
LINE
  5
B3
330
834
100
AcDbEntity
  8
Origins
  6
CENTERLINE
100
AcDbLine
 10
9.270000000000001
 20
3.7
 30
0.0
 11
4.929999999999997
 21
3.700000000000001
 31
0.0
  0
LINE
  5
B4
330
834
100
AcDbEntity
  8
Origins
  6
CENTERLINE
100
AcDbLine
 10
7.099999999999999
 20
1.529999999999984
 30
0.0
 11
7.1
 21
5.870000000000016
 31
0.0
  0
LINE
  5
B5
330
834
100
AcDbEntity
  8
Origins
  6
CENTERLINE
100
AcDbLine
 10
9.270000000000001
 20
126.2
 30
0.0
 11
4.929999999999997
 21
126.2
 31
0.0
  0
LINE
  5
B6
330
834
100
AcDbEntity
  8
Origins
  6
CENTERLINE
100
AcDbLine
 10
7.099999999999999
 20
124.03
 30
0.0
 11
7.1
 21
128.37
 31
0.0
  0
LINE
  5
B7
330
834
100
AcDbEntity
  8
Origins
  6
CENTERLINE
100
AcDbLine
 10
35.23
 20
98.44
 30
0.0
 11
30.89
 21
98.44
 31
0.0
  0
LINE
  5
B8
330
834
100
AcDbEntity
  8
Origins
  6
CENTERLINE
100
AcDbLine
 10
33.06
 20
96.26999999999998
 30
0.0
 11
33.06
 21
100.61
 31
0.0
  0
LINE
  5
B9
330
834
100
AcDbEntity
  8
Origins
  6
CENTERLINE
100
AcDbLine
 10
56.82
 20
98.44
 30
0.0
 11
52.48
 21
98.44
 31
0.0
  0
LINE
  5
BA
330
834
100
AcDbEntity
  8
Origins
  6
CENTERLINE
100
AcDbLine
 10
54.65
 20
96.26999999999998
 30
0.0
 11
54.65
 21
100.61
 31
0.0
  0
LINE
  5
BB
330
834
100
AcDbEntity
  8
Origins
  6
CENTERLINE
100
AcDbLine
 10
86.03
 20
98.44
 30
0.0
 11
81.69
 21
98.44
 31
0.0
  0
LINE
  5
BC
330
834
100
AcDbEntity
  8
Origins
  6
CENTERLINE
100
AcDbLine
 10
83.86
 20
96.26999999999998
 30
0.0
 11
83.86
 21
100.61
 31
0.0
  0
LINE
  5
BD
330
834
100
AcDbEntity
  8
Origins
  6
CENTERLINE
100
AcDbLine
 10
107.62
 20
98.44
 30
0.0
 11
103.28
 21
98.44
 31
0.0
  0
LINE
  5
BE
330
834
100
AcDbEntity
  8
Origins
  6
CENTERLINE
100
AcDbLine
 10
105.45
 20
96.26999999999998
 30
0.0
 11
105.45
 21
100.61
 31
0.0
  0
LINE
  5
BF
330
834
100
AcDbEntity
  8
Origins
  6
CENTERLINE
100
AcDbLine
 10
136.83
 20
98.44
 30
0.0
 11
132.49
 21
98.44
 31
0.0
  0
LINE
  5
C0
330
834
100
AcDbEntity
  8
Origins
  6
CENTERLINE
100
AcDbLine
 10
134.66
 20
96.26999999999998
 30
0.0
 11
134.66
 21
100.61
 31
0.0
  0
LINE
  5
C1
330
834
100
AcDbEntity
  8
Origins
  6
CENTERLINE
100
AcDbLine
 10
158.42
 20
98.44
 30
0.0
 11
154.08
 21
98.44
 31
0.0
  0
LINE
  5
C2
330
834
100
AcDbEntity
  8
Origins
  6
CENTERLINE
100
AcDbLine
 10
156.25
 20
96.26999999999998
 30
0.0
 11
156.25
 21
100.61
 31
0.0
  0
LINE
  5
C3
330
834
100
AcDbEntity
  8
Origins
  6
CENTERLINE
100
AcDbLine
 10
187.63
 20
98.44
 30
0.0
 11
183.29
 21
98.44
 31
0.0
  0
LINE
  5
C4
330
834
100
AcDbEntity
  8
Origins
  6
CENTERLINE
100
AcDbLine
 10
185.46
 20
96.26999999999998
 30
0.0
 11
185.46
 21
100.61
 31
0.0
  0
LINE
  5
C5
330
834
100
AcDbEntity
  8
Origins
  6
CENTERLINE
100
AcDbLine
 10
209.22
 20
98.44
 30
0.0
 11
204.88
 21
98.44
 31
0.0
  0
LINE
  5
C6
330
834
100
AcDbEntity
  8
Origins
  6
CENTERLINE
100
AcDbLine
 10
207.05
 20
96.26999999999998
 30
0.0
 11
207.05
 21
100.61
 31
0.0
  0
LINE
  5
C7
330
834
100
AcDbEntity
  8
Origins
  6
CENTERLINE
100
AcDbLine
 10
238.43
 20
98.44
 30
0.0
 11
234.09
 21
98.44
 31
0.0
  0
LINE
  5
C8
330
834
100
AcDbEntity
  8
Origins
  6
CENTERLINE
100
AcDbLine
 10
236.26
 20
96.26999999999998
 30
0.0
 11
236.26
 21
100.61
 31
0.0
  0
LINE
  5
C9
330
834
100
AcDbEntity
  8
Origins
  6
CENTERLINE
100
AcDbLine
 10
260.02
 20
98.44
 30
0.0
 11
255.68
 21
98.44
 31
0.0
  0
LINE
  5
CA
330
834
100
AcDbEntity
  8
Origins
  6
CENTERLINE
100
AcDbLine
 10
257.85
 20
96.26999999999998
 30
0.0
 11
257.85
 21
100.61
 31
0.0
  0
LINE
  5
CB
330
834
100
AcDbEntity
  8
Origins
  6
CENTERLINE
100
AcDbLine
 10
289.23
 20
98.44
 30
0.0
 11
284.89
 21
98.44
 31
0.0
  0
LINE
  5
CC
330
834
100
AcDbEntity
  8
Origins
  6
CENTERLINE
100
AcDbLine
 10
287.06
 20
96.26999999999998
 30
0.0
 11
287.06
 21
100.61
 31
0.0
  0
LINE
  5
CD
330
834
100
AcDbEntity
  8
Origins
  6
CENTERLINE
100
AcDbLine
 10
310.82
 20
98.44
 30
0.0
 11
306.48
 21
98.44
 31
0.0
  0
LINE
  5
CE
330
834
100
AcDbEntity
  8
Origins
  6
CENTERLINE
100
AcDbLine
 10
308.65
 20
96.26999999999998
 30
0.0
 11
308.65
 21
100.61
 31
0.0
  0
LINE
  5
CF
330
834
100
AcDbEntity
  8
Origins
  6
CENTERLINE
100
AcDbLine
 10
340.03
 20
98.44
 30
0.0
 11
335.69
 21
98.44
 31
0.0
  0
LINE
  5
D0
330
834
100
AcDbEntity
  8
Origins
  6
CENTERLINE
100
AcDbLine
 10
337.86
 20
96.26999999999998
 30
0.0
 11
337.86
 21
100.61
 31
0.0
  0
LINE
  5
D1
330
834
100
AcDbEntity
  8
Origins
  6
CENTERLINE
100
AcDbLine
 10
361.62
 20
98.44
 30
0.0
 11
357.28
 21
98.44
 31
0.0
  0
LINE
  5
D2
330
834
100
AcDbEntity
  8
Origins
  6
CENTERLINE
100
AcDbLine
 10
359.45
 20
96.26999999999998
 30
0.0
 11
359.45
 21
100.61
 31
0.0
  0
LINE
  5
D3
330
834
100
AcDbEntity
  8
Origins
  6
CENTERLINE
100
AcDbLine
 10
408.98
 20
62.82999999999998
 30
0.0
 11
408.98
 21
67.17000000000002
 31
0.0
  0
LINE
  5
D4
330
834
100
AcDbEntity
  8
Origins
  6
CENTERLINE
100
AcDbLine
 10
406.81
 20
65.0
 30
0.0
 11
411.15
 21
65.0
 31
0.0
  0
ARC
  5
D5
330
834
100
AcDbEntity
  8
Cutout
  6
Continuous
 62
     1
420
 16711680
100
AcDbCircle
 10
408.208038
 20
112.17
 30
0.0
 40
3.4
100
AcDbArc
 50
349.9999999999999
 51
90.0
  0
ARC
  5
D6
330
834
100
AcDbEntity
  8
Cutout
  6
Continuous
 62
     1
420
 16711680
100
AcDbCircle
 10
407.396934
 20
107.57
 30
0.0
 40
3.4
100
AcDbArc
 50
270.0
 51
349.9999999999999
  0
ARC
  5
D7
330
834
100
AcDbEntity
  8
Cutout
  6
Continuous
 62
     1
420
 16711680
100
AcDbCircle
 10
395.323066
 20
107.57
 30
0.0
 40
3.4
100
AcDbArc
 50
190.0
 51
270.0
  0
LINE
  5
D8
330
834
100
AcDbEntity
  8
Cutout
  6
Continuous
 62
     1
420
 16711680
100
AcDbLine
 10
391.163616
 20
111.5795962
 30
0.0
 11
391.97472
 21
106.9795962
 31
0.0
  0
ARC
  5
D9
330
834
100
AcDbEntity
  8
Cutout
  6
Continuous
 62
     1
420
 16711680
100
AcDbCircle
 10
394.511962
 20
112.17
 30
0.0
 40
3.4
100
AcDbArc
 50
90.0
 51
190.0
  0
DIMENSION
  5
DA
330
834
100
AcDbEntity
  8
BEMASSUNG
  6
Continuous
 62
     3
420
    65280
100
AcDbDimension
280
     0
  2
*D7
 10
391.111962
 20
118.1632190000001
 30
0.0
 11
385.213576
 21
118.148774
 31
0.0
 70
   162
 71
     5
 42
0.1745329260623358
 73
     0
 74
     0
 75
     0
  3
QCADDimStyle
100
AcDb2LineAngularDimension
 13
389.246357
 23
118.0
 33
0.0
 14
391.03338
 24
107.865289
 34
0.0
 15
391.111962
 25
108.4670869999999
 35
0.0
 16
390.4000604841206
 26
119.642505260478
 36
0.0
1001
ACAD
1000
DSTYLE
1002
{
1070
   279
1070
     2
1070
    41
1040
2.5
1070
    79
1070
     2
1070
   176
1070
     0
1070
   177
1070
     0
1070
   178
1070
     0
1070
    44
1040
1.25
1070
    42
1040
0.625
1070
   147
1040
0.625
1070
   140
1040
2.5
1070
    78
1070
     8
1002
}
  0
DIMENSION
  5
DB
330
834
100
AcDbEntity
  8
BEMASSUNG
  6
Continuous
 62
     3
420
    65280
100
AcDbDimension
280
     0
  2
*D8
 10
390.4599999999998
 20
127.0
 30
0.0
 11
401.580278
 21
127.0000000000001
 31
0.0
 70
   161
 71
     5
 42
21.80000000000001
 73
     0
 74
     0
 75
     0
  3
QCADDimStyle
100
AcDbAlignedDimension
 13
412.26
 23
103.7912018668454
 33
0.0
 14
390.46
 24
103.7912018668452
 34
0.0
1001
ACAD
1000
DSTYLE
1002
{
1070
   279
1070
     2
1070
    41
1040
2.5
1070
    79
1070
     2
1070
   176
1070
     0
1070
   177
1070
     0
1070
   178
1070
     0
1070
    44
1040
1.25
1070
    42
1040
0.625
1070
   147
1040
0.625
1070
   140
1040
2.5
1070
    78
1070
     8
1002
}
  0
DIMENSION
  5
DC
330
834
100
AcDbEntity
  8
BEMASSUNG
  6
Continuous
 62
     3
420
    65280
100
AcDbDimension
280
     0
  2
*D9
 10
395.323066
 20
107.57
 30
0.0
 11
385.8492323780359
 21
98.82340434670606
 31
0.0
 70
   164
 71
     5
 42
3.399999806756182
 73
     0
 74
     0
 75
     0
  3
QCADDimStyle
100
AcDbRadialDimension
 15
392.824934
 25
105.2636316000001
 35
0.0
 40
0.0
1001
ACAD
1000
DSTYLE
1002
{
1070
   279
1070
     2
1070
    41
1040
2.5
1070
    79
1070
     2
1070
   176
1070
     0
1070
   177
1070
     0
1070
   178
1070
     0
1070
    44
1040
1.25
1070
    42
1040
0.625
1070
   147
1040
0.625
1070
   140
1040
2.5
1070
    78
1070
     8
1002
}
  0
LINE
  5
DD
330
834
100
AcDbEntity
  8
Origins
  6
CENTERLINE
100
AcDbLine
 10
386.575346
 20
109.87
 30
0.0
 11
416.169909
 21
109.87
 31
0.0
  0
CIRCLE
  5
DE
330
834
100
AcDbEntity
  8
Cutout
  6
Continuous
 62
     1
420
 16711680
100
AcDbCircle
 10
413.86
 20
109.87
 30
0.0
 40
1.6
  0
LINE
  5
DF
330
834
100
AcDbEntity
  8
Cutout
  6
Continuous
 62
     1
420
 16711680
100
AcDbLine
 10
408.208038
 20
115.57
 30
0.0
 11
394.51
 21
115.57
 31
0.0
  0
LINE
  5
E0
330
834
100
AcDbEntity
  8
Cutout
  6
Continuous
 62
     1
420
 16711680
100
AcDbLine
 10
395.323066
 20
104.17
 30
0.0
 11
407.396934
 21
104.17
 31
0.0
  0
CIRCLE
  5
E1
330
834
100
AcDbEntity
  8
Cutout
  6
Continuous
 62
     1
420
 16711680
100
AcDbCircle
 10
388.86
 20
109.87
 30
0.0
 40
1.6
  0
LINE
  5
E2
330
834
100
AcDbEntity
  8
Origins
  6
CENTERLINE
100
AcDbLine
 10
401.36
 20
118.328266
 30
0.0
 11
401.36
 21
101.943848
 31
0.0
  0
TEXT
  5
E3
330
834
100
AcDbEntity
  8
INFO
  6
Continuous
100
AcDbText
 10
402.233545
 20
111.2234959999999
 30
0.0
 40
2.0
  1
S1160
  7
textstyle0
100
AcDbText
  0
DIMENSION
  5
E4
330
834
100
AcDbEntity
  8
BEMASSUNG
  6
Continuous
 62
     3
420
    65280
100
AcDbDimension
280
     0
  2
*D10
 10
391.1100000000001
 20
120.7040837527029
 30
0.0
 11
400.861074
 21
120.7040837527029
 31
0.0
 70
   161
 71
     5
 42
20.5
 73
     0
 74
     0
 75
     0
  3
QCADDimStyle
100
AcDbAlignedDimension
 13
411.61
 23
105.4630045779318
 33
0.0
 14
391.11
 24
105.4630045779319
 34
0.0
1001
ACAD
1000
DSTYLE
1002
{
1070
   279
1070
     2
1070
    41
1040
2.5
1070
    79
1070
     2
1070
   176
1070
     0
1070
   177
1070
     0
1070
   178
1070
     0
1070
    44
1040
1.25
1070
    42
1040
0.625
1070
   147
1040
0.625
1070
   140
1040
2.5
1070
    78
1070
     8
1002
}
  0
DIMENSION
  5
E5
330
834
100
AcDbEntity
  8
BEMASSUNG
  6
Continuous
 62
     3
420
    65280
100
AcDbDimension
280
     0
  2
*D11
 10
390.239856
 20
110.5760433000001
 30
0.0
 11
391.5703534944573
 21
111.2568308906099
 31
0.0
 70
   163
 71
     5
 42
3.099999820781284
 73
     0
 74
     0
 75
     0
  3
QCADDimStyle
100
AcDbDiametricDimension
 15
387.480144
 25
109.1639566999999
 35
0.0
 40
0.0
1001
ACAD
1000
DSTYLE
1002
{
1070
   279
1070
     2
1070
    41
1040
2.5
1070
    79
1070
     2
1070
   176
1070
     0
1070
   177
1070
     0
1070
   178
1070
     0
1070
    44
1040
1.25
1070
    42
1040
0.625
1070
   147
1040
0.625
1070
   140
1040
2.5
1070
    78
1070
     8
1002
}
  0
DIMENSION
  5
E6
330
834
100
AcDbEntity
  8
BEMASSUNG
  6
Continuous
 62
     3
420
    65280
100
AcDbDimension
280
     0
  2
*D12
 10
413.86
 20
98.0
 30
0.0
 11
401.98664
 21
98.0
 31
0.0
 70
   161
 71
     5
 42
25.0
 73
     0
 74
     0
 75
     0
  3
QCADDimStyle
100
AcDbAlignedDimension
 13
388.86
 23
109.87
 33
0.0
 14
413.86
 24
109.87
 34
0.0
1001
ACAD
1000
DSTYLE
1002
{
1070
   279
1070
     2
1070
    41
1040
2.5
1070
    79
1070
     2
1070
   176
1070
     0
1070
   177
1070
     0
1070
   178
1070
     0
1070
    44
1040
1.25
1070
    42
1040
0.625
1070
   147
1040
0.625
1070
   140
1040
2.5
1070
    78
1070
     8
1002
}
  0
DIMENSION
  5
E7
330
834
100
AcDbEntity
  8
BEMASSUNG
  6
Continuous
 62
     3
420
    65280
100
AcDbDimension
280
     0
  2
*D13
 10
420.725
 20
104.1699999999999
 30
0.0
 11
420.725
 21
109.87
 31
0.0
 70
   160
 71
     5
 42
11.39999999999989
 73
     0
 74
     0
 75
     0
  3
QCADDimStyle
100
AcDbAlignedDimension
 13
408.21
 23
115.5699999999998
 33
0.0
 14
407.346445
 24
104.1699999999999
 34
0.0
 50
90.0
100
AcDbRotatedDimension
1001
ACAD
1000
DSTYLE
1002
{
1070
   279
1070
     2
1070
    41
1040
2.5
1070
    79
1070
     2
1070
   176
1070
     0
1070
   177
1070
     0
1070
   178
1070
     0
1070
    44
1040
1.25
1070
    42
1040
0.625
1070
   147
1040
0.625
1070
   140
1040
2.5
1070
    78
1070
     8
1002
}
  0
LINE
  5
E8
330
834
100
AcDbEntity
  8
Origins
  6
CENTERLINE
100
AcDbLine
 10
411.69
 20
109.87
 30
0.0
 11
416.03
 21
109.87
 31
0.0
  0
LINE
  5
E9
330
834
100
AcDbEntity
  8
Origins
  6
CENTERLINE
100
AcDbLine
 10
413.86
 20
112.04
 30
0.0
 11
413.86
 21
107.7
 31
0.0
  0
LINE
  5
EA
330
834
100
AcDbEntity
  8
Origins
  6
CENTERLINE
100
AcDbLine
 10
386.69
 20
109.87
 30
0.0
 11
391.03
 21
109.87
 31
0.0
  0
LINE
  5
EB
330
834
100
AcDbEntity
  8
Origins
  6
CENTERLINE
100
AcDbLine
 10
388.86
 20
112.04
 30
0.0
 11
388.86
 21
107.7
 31
0.0
  0
LINE
  5
EC
330
834
100
AcDbEntity
  8
Cutout
  6
Continuous
 62
     1
420
 16711680
100
AcDbLine
 10
411.556384
 20
111.5795962
 30
0.0
 11
410.74528
 21
106.9795962
 31
0.0
  0
ARC
  5
ED
330
834
100
AcDbEntity
  8
Cutout
  6
Continuous
100
AcDbCircle
 10
361.7499999999999
 20
49.68196200000001
 30
0.0
 40
3.4
100
AcDbArc
 50
259.9999999999999
 51
0.0
  0
ARC
  5
EE
330
834
100
AcDbEntity
  8
Cutout
  6
Continuous
100
AcDbCircle
 10
357.15
 20
50.49306600000001
 30
0.0
 40
3.4
100
AcDbArc
 50
180.0
 51
259.9999999999999
  0
ARC
  5
EF
330
834
100
AcDbEntity
  8
Cutout
  6
Continuous
100
AcDbCircle
 10
357.15
 20
62.56693370000001
 30
0.0
 40
3.4
100
AcDbArc
 50
100.0
 51
180.0
  0
LINE
  5
F0
330
834
100
AcDbEntity
  8
Cutout
  6
Continuous
100
AcDbLine
 10
361.1595962
 20
66.72638410000002
 30
0.0
 11
356.5595962
 21
65.91528000000001
 31
0.0
  0
ARC
  5
F1
330
834
100
AcDbEntity
  8
Cutout
  6
Continuous
100
AcDbCircle
 10
361.7499999999999
 20
63.37803780000001
 30
0.0
 40
3.4
100
AcDbArc
 50
0.0
 51
100.0
  0
LINE
  5
F2
330
834
100
AcDbEntity
  8
Origins
  6
CENTERLINE
100
AcDbLine
 10
359.45
 20
71.114654
 30
0.0
 11
359.45
 21
41.52009100000001
 31
0.0
  0
CIRCLE
  5
F3
330
834
100
AcDbEntity
  8
Cutout
  6
Continuous
100
AcDbCircle
 10
359.45
 20
44.03000000000001
 30
0.0
 40
1.6
  0
LINE
  5
F4
330
834
100
AcDbEntity
  8
Cutout
  6
Continuous
100
AcDbLine
 10
365.15
 20
49.68196200000001
 30
0.0
 11
365.15
 21
63.38
 31
0.0
  0
LINE
  5
F5
330
834
100
AcDbEntity
  8
Cutout
  6
Continuous
100
AcDbLine
 10
353.7499999999999
 20
62.56693370000001
 30
0.0
 11
353.7499999999999
 21
50.49306600000001
 31
0.0
  0
CIRCLE
  5
F6
330
834
100
AcDbEntity
  8
Cutout
  6
Continuous
100
AcDbCircle
 10
359.45
 20
69.03
 30
0.0
 40
1.6
  0
LINE
  5
F7
330
834
100
AcDbEntity
  8
Origins
  6
CENTERLINE
100
AcDbLine
 10
367.9082659999999
 20
56.53
 30
0.0
 11
351.523848
 21
56.53000000000001
 31
0.0
  0
TEXT
  5
F8
330
834
100
AcDbEntity
  8
INFO
  6
Continuous
100
AcDbText
 10
360.8034959999999
 20
55.85645499999988
 30
0.0
 40
2.0
  1
S1160
 50
270.0
  7
textstyle1
100
AcDbText
  0
LINE
  5
F9
330
834
100
AcDbEntity
  8
Origins
  6
CENTERLINE
100
AcDbLine
 10
359.45
 20
46.20000000000001
 30
0.0
 11
359.45
 21
41.86000000000001
 31
0.0
  0
LINE
  5
FA
330
834
100
AcDbEntity
  8
Origins
  6
CENTERLINE
100
AcDbLine
 10
361.6199999999999
 20
44.03000000000001
 30
0.0
 11
357.2799999999999
 21
44.03000000000001
 31
0.0
  0
LINE
  5
FB
330
834
100
AcDbEntity
  8
Origins
  6
CENTERLINE
100
AcDbLine
 10
359.45
 20
71.20000000000002
 30
0.0
 11
359.45
 21
66.86000000000001
 31
0.0
  0
LINE
  5
FC
330
834
100
AcDbEntity
  8
Origins
  6
CENTERLINE
100
AcDbLine
 10
361.6199999999999
 20
69.03
 30
0.0
 11
357.2799999999999
 21
69.03
 31
0.0
  0
LINE
  5
FD
330
834
100
AcDbEntity
  8
Cutout
  6
Continuous
100
AcDbLine
 10
361.1595961999998
 20
46.33361600000001
 30
0.0
 11
356.5595961999999
 21
47.14472000000001
 31
0.0
  0
ARC
  5
FE
330
834
100
AcDbEntity
  8
Cutout
  6
Continuous
100
AcDbCircle
 10
340.16
 20
49.681962
 30
0.0
 40
3.4
100
AcDbArc
 50
259.9999999999999
 51
0.0
  0
ARC
  5
FF
330
834
100
AcDbEntity
  8
Cutout
  6
Continuous
100
AcDbCircle
 10
335.5599999999999
 20
50.49306600000001
 30
0.0
 40
3.4
100
AcDbArc
 50
180.0
 51
259.9999999999999
  0
ARC
  5
100
330
834
100
AcDbEntity
  8
Cutout
  6
Continuous
100
AcDbCircle
 10
335.5599999999999
 20
62.56693370000001
 30
0.0
 40
3.4
100
AcDbArc
 50
100.0
 51
180.0
  0
LINE
  5
101
330
834
100
AcDbEntity
  8
Cutout
  6
Continuous
100
AcDbLine
 10
339.5695962
 20
66.72638410000002
 30
0.0
 11
334.9695962
 21
65.91528000000001
 31
0.0
  0
ARC
  5
102
330
834
100
AcDbEntity
  8
Cutout
  6
Continuous
100
AcDbCircle
 10
340.16
 20
63.37803780000001
 30
0.0
 40
3.4
100
AcDbArc
 50
0.0
 51
100.0
  0
LINE
  5
103
330
834
100
AcDbEntity
  8
Origins
  6
CENTERLINE
100
AcDbLine
 10
337.86
 20
71.114654
 30
0.0
 11
337.86
 21
41.52009100000001
 31
0.0
  0
CIRCLE
  5
104
330
834
100
AcDbEntity
  8
Cutout
  6
Continuous
100
AcDbCircle
 10
337.86
 20
44.03000000000001
 30
0.0
 40
1.6
  0
LINE
  5
105
330
834
100
AcDbEntity
  8
Cutout
  6
Continuous
100
AcDbLine
 10
343.5599999999999
 20
49.681962
 30
0.0
 11
343.5599999999999
 21
63.38
 31
0.0
  0
LINE
  5
106
330
834
100
AcDbEntity
  8
Cutout
  6
Continuous
100
AcDbLine
 10
332.16
 20
62.56693370000001
 30
0.0
 11
332.16
 21
50.49306600000001
 31
0.0
  0
CIRCLE
  5
107
330
834
100
AcDbEntity
  8
Cutout
  6
Continuous
100
AcDbCircle
 10
337.86
 20
69.03
 30
0.0
 40
1.6
  0
LINE
  5
108
330
834
100
AcDbEntity
  8
Origins
  6
CENTERLINE
100
AcDbLine
 10
346.3182659999999
 20
56.53
 30
0.0
 11
329.933848
 21
56.53000000000001
 31
0.0
  0
TEXT
  5
109
330
834
100
AcDbEntity
  8
INFO
  6
Continuous
100
AcDbText
 10
339.213496
 20
55.85645500000006
 30
0.0
 40
2.0
  1
S1160
 50
270.0
  7
textstyle2
100
AcDbText
  0
LINE
  5
10A
330
834
100
AcDbEntity
  8
Origins
  6
CENTERLINE
100
AcDbLine
 10
337.86
 20
46.20000000000001
 30
0.0
 11
337.86
 21
41.86000000000001
 31
0.0
  0
LINE
  5
10B
330
834
100
AcDbEntity
  8
Origins
  6
CENTERLINE
100
AcDbLine
 10
340.03
 20
44.03000000000001
 30
0.0
 11
335.6899999999999
 21
44.03000000000001
 31
0.0
  0
LINE
  5
10C
330
834
100
AcDbEntity
  8
Origins
  6
CENTERLINE
100
AcDbLine
 10
337.86
 20
71.20000000000002
 30
0.0
 11
337.86
 21
66.86000000000001
 31
0.0
  0
LINE
  5
10D
330
834
100
AcDbEntity
  8
Origins
  6
CENTERLINE
100
AcDbLine
 10
340.03
 20
69.03
 30
0.0
 11
335.6899999999999
 21
69.03
 31
0.0
  0
LINE
  5
10E
330
834
100
AcDbEntity
  8
Cutout
  6
Continuous
100
AcDbLine
 10
339.5695962
 20
46.33361600000001
 30
0.0
 11
334.9695961999998
 21
47.14472000000001
 31
0.0
  0
ARC
  5
10F
330
834
100
AcDbEntity
  8
Cutout
  6
Continuous
100
AcDbCircle
 10
310.95
 20
49.681962
 30
0.0
 40
3.4
100
AcDbArc
 50
259.9999999999999
 51
0.0
  0
ARC
  5
110
330
834
100
AcDbEntity
  8
Cutout
  6
Continuous
100
AcDbCircle
 10
306.35
 20
50.49306600000001
 30
0.0
 40
3.4
100
AcDbArc
 50
180.0
 51
259.9999999999999
  0
ARC
  5
111
330
834
100
AcDbEntity
  8
Cutout
  6
Continuous
100
AcDbCircle
 10
306.35
 20
62.56693370000001
 30
0.0
 40
3.4
100
AcDbArc
 50
100.0
 51
180.0
  0
LINE
  5
112
330
834
100
AcDbEntity
  8
Cutout
  6
Continuous
100
AcDbLine
 10
310.3595962
 20
66.72638410000002
 30
0.0
 11
305.7595962
 21
65.91528000000001
 31
0.0
  0
ARC
  5
113
330
834
100
AcDbEntity
  8
Cutout
  6
Continuous
100
AcDbCircle
 10
310.95
 20
63.37803780000001
 30
0.0
 40
3.4
100
AcDbArc
 50
0.0
 51
100.0
  0
LINE
  5
114
330
834
100
AcDbEntity
  8
Origins
  6
CENTERLINE
100
AcDbLine
 10
308.65
 20
71.114654
 30
0.0
 11
308.65
 21
41.52009100000001
 31
0.0
  0
CIRCLE
  5
115
330
834
100
AcDbEntity
  8
Cutout
  6
Continuous
100
AcDbCircle
 10
308.65
 20
44.03000000000001
 30
0.0
 40
1.6
  0
LINE
  5
116
330
834
100
AcDbEntity
  8
Cutout
  6
Continuous
100
AcDbLine
 10
314.35
 20
49.681962
 30
0.0
 11
314.35
 21
63.38
 31
0.0
  0
LINE
  5
117
330
834
100
AcDbEntity
  8
Cutout
  6
Continuous
100
AcDbLine
 10
302.95
 20
62.56693370000001
 30
0.0
 11
302.95
 21
50.49306600000001
 31
0.0
  0
CIRCLE
  5
118
330
834
100
AcDbEntity
  8
Cutout
  6
Continuous
100
AcDbCircle
 10
308.65
 20
69.03
 30
0.0
 40
1.6
  0
LINE
  5
119
330
834
100
AcDbEntity
  8
Origins
  6
CENTERLINE
100
AcDbLine
 10
317.108266
 20
56.53
 30
0.0
 11
300.723848
 21
56.53000000000001
 31
0.0
  0
TEXT
  5
11A
330
834
100
AcDbEntity
  8
INFO
  6
Continuous
100
AcDbText
 10
310.003496
 20
55.85645499999988
 30
0.0
 40
2.0
  1
S1160
 50
270.0
  7
textstyle3
100
AcDbText
  0
LINE
  5
11B
330
834
100
AcDbEntity
  8
Origins
  6
CENTERLINE
100
AcDbLine
 10
308.65
 20
46.20000000000001
 30
0.0
 11
308.65
 21
41.86000000000001
 31
0.0
  0
LINE
  5
11C
330
834
100
AcDbEntity
  8
Origins
  6
CENTERLINE
100
AcDbLine
 10
310.82
 20
44.03000000000001
 30
0.0
 11
306.48
 21
44.03000000000001
 31
0.0
  0
LINE
  5
11D
330
834
100
AcDbEntity
  8
Origins
  6
CENTERLINE
100
AcDbLine
 10
308.65
 20
71.20000000000002
 30
0.0
 11
308.65
 21
66.86000000000001
 31
0.0
  0
LINE
  5
11E
330
834
100
AcDbEntity
  8
Origins
  6
CENTERLINE
100
AcDbLine
 10
310.82
 20
69.03
 30
0.0
 11
306.48
 21
69.03
 31
0.0
  0
LINE
  5
11F
330
834
100
AcDbEntity
  8
Cutout
  6
Continuous
100
AcDbLine
 10
310.3595962
 20
46.33361600000001
 30
0.0
 11
305.7595962
 21
47.14472000000001
 31
0.0
  0
ARC
  5
120
330
834
100
AcDbEntity
  8
Cutout
  6
Continuous
100
AcDbCircle
 10
289.36
 20
49.681962
 30
0.0
 40
3.4
100
AcDbArc
 50
259.9999999999999
 51
0.0
  0
ARC
  5
121
330
834
100
AcDbEntity
  8
Cutout
  6
Continuous
100
AcDbCircle
 10
284.76
 20
50.49306600000001
 30
0.0
 40
3.4
100
AcDbArc
 50
180.0
 51
259.9999999999999
  0
ARC
  5
122
330
834
100
AcDbEntity
  8
Cutout
  6
Continuous
100
AcDbCircle
 10
284.76
 20
62.56693370000001
 30
0.0
 40
3.4
100
AcDbArc
 50
100.0
 51
180.0
  0
LINE
  5
123
330
834
100
AcDbEntity
  8
Cutout
  6
Continuous
100
AcDbLine
 10
288.7695962
 20
66.72638410000002
 30
0.0
 11
284.1695962
 21
65.91528000000001
 31
0.0
  0
ARC
  5
124
330
834
100
AcDbEntity
  8
Cutout
  6
Continuous
100
AcDbCircle
 10
289.36
 20
63.37803780000001
 30
0.0
 40
3.4
100
AcDbArc
 50
0.0
 51
100.0
  0
LINE
  5
125
330
834
100
AcDbEntity
  8
Origins
  6
CENTERLINE
100
AcDbLine
 10
287.06
 20
71.114654
 30
0.0
 11
287.06
 21
41.52009100000001
 31
0.0
  0
CIRCLE
  5
126
330
834
100
AcDbEntity
  8
Cutout
  6
Continuous
100
AcDbCircle
 10
287.06
 20
44.03000000000001
 30
0.0
 40
1.6
  0
LINE
  5
127
330
834
100
AcDbEntity
  8
Cutout
  6
Continuous
100
AcDbLine
 10
292.76
 20
49.681962
 30
0.0
 11
292.76
 21
63.38
 31
0.0
  0
LINE
  5
128
330
834
100
AcDbEntity
  8
Cutout
  6
Continuous
100
AcDbLine
 10
281.36
 20
62.56693370000001
 30
0.0
 11
281.3599999999999
 21
50.49306600000001
 31
0.0
  0
CIRCLE
  5
129
330
834
100
AcDbEntity
  8
Cutout
  6
Continuous
100
AcDbCircle
 10
287.06
 20
69.03
 30
0.0
 40
1.6
  0
LINE
  5
12A
330
834
100
AcDbEntity
  8
Origins
  6
CENTERLINE
100
AcDbLine
 10
295.518266
 20
56.53
 30
0.0
 11
279.133848
 21
56.53000000000001
 31
0.0
  0
TEXT
  5
12B
330
834
100
AcDbEntity
  8
INFO
  6
Continuous
100
AcDbText
 10
288.413496
 20
55.85645499999984
 30
0.0
 40
2.0
  1
S1160
 50
270.0
  7
textstyle4
100
AcDbText
  0
LINE
  5
12C
330
834
100
AcDbEntity
  8
Origins
  6
CENTERLINE
100
AcDbLine
 10
287.06
 20
46.20000000000001
 30
0.0
 11
287.06
 21
41.86000000000001
 31
0.0
  0
LINE
  5
12D
330
834
100
AcDbEntity
  8
Origins
  6
CENTERLINE
100
AcDbLine
 10
289.2299999999999
 20
44.03000000000001
 30
0.0
 11
284.89
 21
44.03000000000001
 31
0.0
  0
LINE
  5
12E
330
834
100
AcDbEntity
  8
Origins
  6
CENTERLINE
100
AcDbLine
 10
287.06
 20
71.20000000000002
 30
0.0
 11
287.06
 21
66.86000000000001
 31
0.0
  0
LINE
  5
12F
330
834
100
AcDbEntity
  8
Origins
  6
CENTERLINE
100
AcDbLine
 10
289.23
 20
69.03
 30
0.0
 11
284.89
 21
69.03
 31
0.0
  0
LINE
  5
130
330
834
100
AcDbEntity
  8
Cutout
  6
Continuous
100
AcDbLine
 10
288.7695962
 20
46.33361600000001
 30
0.0
 11
284.1695961999999
 21
47.14472000000001
 31
0.0
  0
ARC
  5
131
330
834
100
AcDbEntity
  8
Cutout
  6
Continuous
100
AcDbCircle
 10
260.15
 20
49.681962
 30
0.0
 40
3.4
100
AcDbArc
 50
259.9999999999999
 51
0.0
  0
ARC
  5
132
330
834
100
AcDbEntity
  8
Cutout
  6
Continuous
100
AcDbCircle
 10
255.55
 20
50.49306600000001
 30
0.0
 40
3.4
100
AcDbArc
 50
180.0
 51
259.9999999999999
  0
ARC
  5
133
330
834
100
AcDbEntity
  8
Cutout
  6
Continuous
100
AcDbCircle
 10
255.55
 20
62.56693370000001
 30
0.0
 40
3.4
100
AcDbArc
 50
100.0
 51
180.0
  0
LINE
  5
134
330
834
100
AcDbEntity
  8
Cutout
  6
Continuous
100
AcDbLine
 10
259.5595962
 20
66.72638410000002
 30
0.0
 11
254.9595962
 21
65.91528000000001
 31
0.0
  0
ARC
  5
135
330
834
100
AcDbEntity
  8
Cutout
  6
Continuous
100
AcDbCircle
 10
260.15
 20
63.37803780000001
 30
0.0
 40
3.4
100
AcDbArc
 50
0.0
 51
100.0
  0
LINE
  5
136
330
834
100
AcDbEntity
  8
Origins
  6
CENTERLINE
100
AcDbLine
 10
257.85
 20
71.114654
 30
0.0
 11
257.85
 21
41.52009100000001
 31
0.0
  0
CIRCLE
  5
137
330
834
100
AcDbEntity
  8
Cutout
  6
Continuous
100
AcDbCircle
 10
257.85
 20
44.03000000000001
 30
0.0
 40
1.6
  0
LINE
  5
138
330
834
100
AcDbEntity
  8
Cutout
  6
Continuous
100
AcDbLine
 10
263.55
 20
49.681962
 30
0.0
 11
263.55
 21
63.38
 31
0.0
  0
LINE
  5
139
330
834
100
AcDbEntity
  8
Cutout
  6
Continuous
100
AcDbLine
 10
252.15
 20
62.56693370000001
 30
0.0
 11
252.15
 21
50.49306600000001
 31
0.0
  0
CIRCLE
  5
13A
330
834
100
AcDbEntity
  8
Cutout
  6
Continuous
100
AcDbCircle
 10
257.85
 20
69.03
 30
0.0
 40
1.6
  0
LINE
  5
13B
330
834
100
AcDbEntity
  8
Origins
  6
CENTERLINE
100
AcDbLine
 10
266.308266
 20
56.53
 30
0.0
 11
249.923848
 21
56.53000000000001
 31
0.0
  0
TEXT
  5
13C
330
834
100
AcDbEntity
  8
INFO
  6
Continuous
100
AcDbText
 10
259.203496
 20
55.8564549999999
 30
0.0
 40
2.0
  1
S1160
 50
270.0
  7
textstyle5
100
AcDbText
  0
LINE
  5
13D
330
834
100
AcDbEntity
  8
Origins
  6
CENTERLINE
100
AcDbLine
 10
257.85
 20
46.20000000000001
 30
0.0
 11
257.85
 21
41.86000000000001
 31
0.0
  0
LINE
  5
13E
330
834
100
AcDbEntity
  8
Origins
  6
CENTERLINE
100
AcDbLine
 10
260.02
 20
44.03000000000001
 30
0.0
 11
255.68
 21
44.03000000000001
 31
0.0
  0
LINE
  5
13F
330
834
100
AcDbEntity
  8
Origins
  6
CENTERLINE
100
AcDbLine
 10
257.85
 20
71.20000000000002
 30
0.0
 11
257.85
 21
66.86000000000001
 31
0.0
  0
LINE
  5
140
330
834
100
AcDbEntity
  8
Origins
  6
CENTERLINE
100
AcDbLine
 10
260.02
 20
69.03
 30
0.0
 11
255.68
 21
69.03
 31
0.0
  0
LINE
  5
141
330
834
100
AcDbEntity
  8
Cutout
  6
Continuous
100
AcDbLine
 10
259.5595962
 20
46.33361600000001
 30
0.0
 11
254.9595962
 21
47.14472000000001
 31
0.0
  0
ARC
  5
142
330
834
100
AcDbEntity
  8
Cutout
  6
Continuous
100
AcDbCircle
 10
238.5599999999999
 20
49.681962
 30
0.0
 40
3.4
100
AcDbArc
 50
259.9999999999999
 51
0.0
  0
ARC
  5
143
330
834
100
AcDbEntity
  8
Cutout
  6
Continuous
100
AcDbCircle
 10
233.96
 20
50.49306600000001
 30
0.0
 40
3.4
100
AcDbArc
 50
180.0
 51
259.9999999999999
  0
ARC
  5
144
330
834
100
AcDbEntity
  8
Cutout
  6
Continuous
100
AcDbCircle
 10
233.96
 20
62.56693370000001
 30
0.0
 40
3.4
100
AcDbArc
 50
100.0
 51
180.0
  0
LINE
  5
145
330
834
100
AcDbEntity
  8
Cutout
  6
Continuous
100
AcDbLine
 10
237.9695962000001
 20
66.72638410000002
 30
0.0
 11
233.3695962
 21
65.91528000000001
 31
0.0
  0
ARC
  5
146
330
834
100
AcDbEntity
  8
Cutout
  6
Continuous
100
AcDbCircle
 10
238.5599999999999
 20
63.37803780000001
 30
0.0
 40
3.4
100
AcDbArc
 50
0.0
 51
100.0
  0
LINE
  5
147
330
834
100
AcDbEntity
  8
Origins
  6
CENTERLINE
100
AcDbLine
 10
236.26
 20
71.114654
 30
0.0
 11
236.26
 21
41.52009100000001
 31
0.0
  0
CIRCLE
  5
148
330
834
100
AcDbEntity
  8
Cutout
  6
Continuous
100
AcDbCircle
 10
236.26
 20
44.03000000000001
 30
0.0
 40
1.6
  0
LINE
  5
149
330
834
100
AcDbEntity
  8
Cutout
  6
Continuous
100
AcDbLine
 10
241.96
 20
49.681962
 30
0.0
 11
241.96
 21
63.38
 31
0.0
  0
LINE
  5
14A
330
834
100
AcDbEntity
  8
Cutout
  6
Continuous
100
AcDbLine
 10
230.5599999999999
 20
62.56693370000001
 30
0.0
 11
230.5599999999999
 21
50.49306600000001
 31
0.0
  0
CIRCLE
  5
14B
330
834
100
AcDbEntity
  8
Cutout
  6
Continuous
100
AcDbCircle
 10
236.26
 20
69.03
 30
0.0
 40
1.6
  0
LINE
  5
14C
330
834
100
AcDbEntity
  8
Origins
  6
CENTERLINE
100
AcDbLine
 10
244.7182659999999
 20
56.53
 30
0.0
 11
228.333848
 21
56.53000000000001
 31
0.0
  0
TEXT
  5
14D
330
834
100
AcDbEntity
  8
INFO
  6
Continuous
100
AcDbText
 10
237.613496
 20
55.8564549999999
 30
0.0
 40
2.0
  1
S1160
 50
270.0
  7
textstyle6
100
AcDbText
  0
LINE
  5
14E
330
834
100
AcDbEntity
  8
Origins
  6
CENTERLINE
100
AcDbLine
 10
236.26
 20
46.20000000000001
 30
0.0
 11
236.26
 21
41.86000000000001
 31
0.0
  0
LINE
  5
14F
330
834
100
AcDbEntity
  8
Origins
  6
CENTERLINE
100
AcDbLine
 10
238.4299999999999
 20
44.03000000000001
 30
0.0
 11
234.0899999999999
 21
44.03000000000001
 31
0.0
  0
LINE
  5
150
330
834
100
AcDbEntity
  8
Origins
  6
CENTERLINE
100
AcDbLine
 10
236.26
 20
71.20000000000002
 30
0.0
 11
236.26
 21
66.86000000000001
 31
0.0
  0
LINE
  5
151
330
834
100
AcDbEntity
  8
Origins
  6
CENTERLINE
100
AcDbLine
 10
238.4300000000001
 20
69.03
 30
0.0
 11
234.0899999999999
 21
69.03
 31
0.0
  0
LINE
  5
152
330
834
100
AcDbEntity
  8
Cutout
  6
Continuous
100
AcDbLine
 10
237.9695962
 20
46.33361600000001
 30
0.0
 11
233.3695962
 21
47.14472000000001
 31
0.0
  0
ARC
  5
153
330
834
100
AcDbEntity
  8
Cutout
  6
Continuous
100
AcDbCircle
 10
209.35
 20
49.681962
 30
0.0
 40
3.4
100
AcDbArc
 50
259.9999999999999
 51
0.0
  0
ARC
  5
154
330
834
100
AcDbEntity
  8
Cutout
  6
Continuous
100
AcDbCircle
 10
204.75
 20
50.49306600000001
 30
0.0
 40
3.4
100
AcDbArc
 50
180.0
 51
259.9999999999999
  0
ARC
  5
155
330
834
100
AcDbEntity
  8
Cutout
  6
Continuous
100
AcDbCircle
 10
204.75
 20
62.56693370000001
 30
0.0
 40
3.4
100
AcDbArc
 50
100.0
 51
180.0
  0
LINE
  5
156
330
834
100
AcDbEntity
  8
Cutout
  6
Continuous
100
AcDbLine
 10
208.7595962
 20
66.72638410000002
 30
0.0
 11
204.1595962
 21
65.91528000000001
 31
0.0
  0
ARC
  5
157
330
834
100
AcDbEntity
  8
Cutout
  6
Continuous
100
AcDbCircle
 10
209.35
 20
63.37803780000001
 30
0.0
 40
3.4
100
AcDbArc
 50
0.0
 51
100.0
  0
LINE
  5
158
330
834
100
AcDbEntity
  8
Origins
  6
CENTERLINE
100
AcDbLine
 10
207.05
 20
71.114654
 30
0.0
 11
207.05
 21
41.52009100000001
 31
0.0
  0
CIRCLE
  5
159
330
834
100
AcDbEntity
  8
Cutout
  6
Continuous
100
AcDbCircle
 10
207.05
 20
44.03000000000001
 30
0.0
 40
1.6
  0
LINE
  5
15A
330
834
100
AcDbEntity
  8
Cutout
  6
Continuous
100
AcDbLine
 10
212.75
 20
49.681962
 30
0.0
 11
212.75
 21
63.38
 31
0.0
  0
LINE
  5
15B
330
834
100
AcDbEntity
  8
Cutout
  6
Continuous
100
AcDbLine
 10
201.35
 20
62.56693370000001
 30
0.0
 11
201.35
 21
50.49306600000001
 31
0.0
  0
CIRCLE
  5
15C
330
834
100
AcDbEntity
  8
Cutout
  6
Continuous
100
AcDbCircle
 10
207.05
 20
69.03
 30
0.0
 40
1.6
  0
LINE
  5
15D
330
834
100
AcDbEntity
  8
Origins
  6
CENTERLINE
100
AcDbLine
 10
215.508266
 20
56.53
 30
0.0
 11
199.123848
 21
56.53000000000001
 31
0.0
  0
TEXT
  5
15E
330
834
100
AcDbEntity
  8
INFO
  6
Continuous
100
AcDbText
 10
208.403496
 20
55.85645499999997
 30
0.0
 40
2.0
  1
S1160
 50
270.0
  7
textstyle7
100
AcDbText
  0
LINE
  5
15F
330
834
100
AcDbEntity
  8
Origins
  6
CENTERLINE
100
AcDbLine
 10
207.05
 20
46.20000000000001
 30
0.0
 11
207.05
 21
41.86000000000001
 31
0.0
  0
LINE
  5
160
330
834
100
AcDbEntity
  8
Origins
  6
CENTERLINE
100
AcDbLine
 10
209.22
 20
44.03000000000001
 30
0.0
 11
204.88
 21
44.03000000000001
 31
0.0
  0
LINE
  5
161
330
834
100
AcDbEntity
  8
Origins
  6
CENTERLINE
100
AcDbLine
 10
207.05
 20
71.20000000000002
 30
0.0
 11
207.05
 21
66.86000000000001
 31
0.0
  0
LINE
  5
162
330
834
100
AcDbEntity
  8
Origins
  6
CENTERLINE
100
AcDbLine
 10
209.22
 20
69.03
 30
0.0
 11
204.88
 21
69.03
 31
0.0
  0
LINE
  5
163
330
834
100
AcDbEntity
  8
Cutout
  6
Continuous
100
AcDbLine
 10
208.7595962
 20
46.33361600000001
 30
0.0
 11
204.1595961999999
 21
47.14472000000001
 31
0.0
  0
ARC
  5
164
330
834
100
AcDbEntity
  8
Cutout
  6
Continuous
100
AcDbCircle
 10
187.76
 20
49.681962
 30
0.0
 40
3.4
100
AcDbArc
 50
259.9999999999999
 51
0.0
  0
ARC
  5
165
330
834
100
AcDbEntity
  8
Cutout
  6
Continuous
100
AcDbCircle
 10
183.16
 20
50.49306600000001
 30
0.0
 40
3.4
100
AcDbArc
 50
180.0
 51
259.9999999999999
  0
ARC
  5
166
330
834
100
AcDbEntity
  8
Cutout
  6
Continuous
100
AcDbCircle
 10
183.16
 20
62.56693370000001
 30
0.0
 40
3.4
100
AcDbArc
 50
100.0
 51
180.0
  0
LINE
  5
167
330
834
100
AcDbEntity
  8
Cutout
  6
Continuous
100
AcDbLine
 10
187.1695962
 20
66.72638410000002
 30
0.0
 11
182.5695962
 21
65.91528000000001
 31
0.0
  0
ARC
  5
168
330
834
100
AcDbEntity
  8
Cutout
  6
Continuous
100
AcDbCircle
 10
187.76
 20
63.37803780000001
 30
0.0
 40
3.4
100
AcDbArc
 50
0.0
 51
100.0
  0
LINE
  5
169
330
834
100
AcDbEntity
  8
Origins
  6
CENTERLINE
100
AcDbLine
 10
185.46
 20
71.114654
 30
0.0
 11
185.46
 21
41.52009100000001
 31
0.0
  0
CIRCLE
  5
16A
330
834
100
AcDbEntity
  8
Cutout
  6
Continuous
100
AcDbCircle
 10
185.46
 20
44.03000000000001
 30
0.0
 40
1.6
  0
LINE
  5
16B
330
834
100
AcDbEntity
  8
Cutout
  6
Continuous
100
AcDbLine
 10
191.16
 20
49.681962
 30
0.0
 11
191.16
 21
63.38
 31
0.0
  0
LINE
  5
16C
330
834
100
AcDbEntity
  8
Cutout
  6
Continuous
100
AcDbLine
 10
179.76
 20
62.56693370000001
 30
0.0
 11
179.76
 21
50.49306600000001
 31
0.0
  0
CIRCLE
  5
16D
330
834
100
AcDbEntity
  8
Cutout
  6
Continuous
100
AcDbCircle
 10
185.46
 20
69.03
 30
0.0
 40
1.6
  0
LINE
  5
16E
330
834
100
AcDbEntity
  8
Origins
  6
CENTERLINE
100
AcDbLine
 10
193.918266
 20
56.53
 30
0.0
 11
177.533848
 21
56.53000000000001
 31
0.0
  0
TEXT
  5
16F
330
834
100
AcDbEntity
  8
INFO
  6
Continuous
100
AcDbText
 10
186.813496
 20
55.85645499999994
 30
0.0
 40
2.0
  1
S1160
 50
270.0
  7
textstyle8
100
AcDbText
  0
LINE
  5
170
330
834
100
AcDbEntity
  8
Origins
  6
CENTERLINE
100
AcDbLine
 10
185.46
 20
46.20000000000001
 30
0.0
 11
185.46
 21
41.86000000000001
 31
0.0
  0
LINE
  5
171
330
834
100
AcDbEntity
  8
Origins
  6
CENTERLINE
100
AcDbLine
 10
187.63
 20
44.03000000000001
 30
0.0
 11
183.29
 21
44.03000000000001
 31
0.0
  0
LINE
  5
172
330
834
100
AcDbEntity
  8
Origins
  6
CENTERLINE
100
AcDbLine
 10
185.46
 20
71.20000000000002
 30
0.0
 11
185.46
 21
66.86000000000001
 31
0.0
  0
LINE
  5
173
330
834
100
AcDbEntity
  8
Origins
  6
CENTERLINE
100
AcDbLine
 10
187.63
 20
69.03
 30
0.0
 11
183.29
 21
69.03
 31
0.0
  0
LINE
  5
174
330
834
100
AcDbEntity
  8
Cutout
  6
Continuous
100
AcDbLine
 10
187.1695962
 20
46.33361600000001
 30
0.0
 11
182.5695962
 21
47.14472000000001
 31
0.0
  0
ARC
  5
175
330
834
100
AcDbEntity
  8
Cutout
  6
Continuous
100
AcDbCircle
 10
158.55
 20
49.681962
 30
0.0
 40
3.4
100
AcDbArc
 50
259.9999999999999
 51
0.0
  0
ARC
  5
176
330
834
100
AcDbEntity
  8
Cutout
  6
Continuous
100
AcDbCircle
 10
153.95
 20
50.49306600000001
 30
0.0
 40
3.4
100
AcDbArc
 50
180.0
 51
259.9999999999999
  0
ARC
  5
177
330
834
100
AcDbEntity
  8
Cutout
  6
Continuous
100
AcDbCircle
 10
153.95
 20
62.56693370000001
 30
0.0
 40
3.4
100
AcDbArc
 50
100.0
 51
180.0
  0
LINE
  5
178
330
834
100
AcDbEntity
  8
Cutout
  6
Continuous
100
AcDbLine
 10
157.9595962
 20
66.72638410000002
 30
0.0
 11
153.3595962
 21
65.91528000000001
 31
0.0
  0
ARC
  5
179
330
834
100
AcDbEntity
  8
Cutout
  6
Continuous
100
AcDbCircle
 10
158.55
 20
63.37803780000001
 30
0.0
 40
3.4
100
AcDbArc
 50
0.0
 51
100.0
  0
LINE
  5
17A
330
834
100
AcDbEntity
  8
Origins
  6
CENTERLINE
100
AcDbLine
 10
156.25
 20
71.114654
 30
0.0
 11
156.25
 21
41.52009100000001
 31
0.0
  0
CIRCLE
  5
17B
330
834
100
AcDbEntity
  8
Cutout
  6
Continuous
100
AcDbCircle
 10
156.25
 20
44.03000000000001
 30
0.0
 40
1.6
  0
LINE
  5
17C
330
834
100
AcDbEntity
  8
Cutout
  6
Continuous
100
AcDbLine
 10
161.95
 20
49.681962
 30
0.0
 11
161.95
 21
63.38
 31
0.0
  0
LINE
  5
17D
330
834
100
AcDbEntity
  8
Cutout
  6
Continuous
100
AcDbLine
 10
150.55
 20
62.56693370000001
 30
0.0
 11
150.55
 21
50.49306600000001
 31
0.0
  0
CIRCLE
  5
17E
330
834
100
AcDbEntity
  8
Cutout
  6
Continuous
100
AcDbCircle
 10
156.25
 20
69.03
 30
0.0
 40
1.6
  0
LINE
  5
17F
330
834
100
AcDbEntity
  8
Origins
  6
CENTERLINE
100
AcDbLine
 10
164.708266
 20
56.53
 30
0.0
 11
148.323848
 21
56.53000000000001
 31
0.0
  0
TEXT
  5
180
330
834
100
AcDbEntity
  8
INFO
  6
Continuous
100
AcDbText
 10
157.603496
 20
55.85645499999995
 30
0.0
 40
2.0
  1
S1160
 50
270.0
  7
textstyle9
100
AcDbText
  0
LINE
  5
181
330
834
100
AcDbEntity
  8
Origins
  6
CENTERLINE
100
AcDbLine
 10
156.25
 20
46.20000000000001
 30
0.0
 11
156.25
 21
41.86000000000001
 31
0.0
  0
LINE
  5
182
330
834
100
AcDbEntity
  8
Origins
  6
CENTERLINE
100
AcDbLine
 10
158.42
 20
44.03000000000001
 30
0.0
 11
154.08
 21
44.03000000000001
 31
0.0
  0
LINE
  5
183
330
834
100
AcDbEntity
  8
Origins
  6
CENTERLINE
100
AcDbLine
 10
156.25
 20
71.20000000000002
 30
0.0
 11
156.25
 21
66.86000000000001
 31
0.0
  0
LINE
  5
184
330
834
100
AcDbEntity
  8
Origins
  6
CENTERLINE
100
AcDbLine
 10
158.42
 20
69.03
 30
0.0
 11
154.08
 21
69.03
 31
0.0
  0
LINE
  5
185
330
834
100
AcDbEntity
  8
Cutout
  6
Continuous
100
AcDbLine
 10
157.9595962
 20
46.33361600000001
 30
0.0
 11
153.3595962
 21
47.14472000000001
 31
0.0
  0
ARC
  5
186
330
834
100
AcDbEntity
  8
Cutout
  6
Continuous
100
AcDbCircle
 10
136.96
 20
49.681962
 30
0.0
 40
3.4
100
AcDbArc
 50
259.9999999999999
 51
0.0
  0
ARC
  5
187
330
834
100
AcDbEntity
  8
Cutout
  6
Continuous
100
AcDbCircle
 10
132.36
 20
50.49306600000001
 30
0.0
 40
3.4
100
AcDbArc
 50
180.0
 51
259.9999999999999
  0
ARC
  5
188
330
834
100
AcDbEntity
  8
Cutout
  6
Continuous
100
AcDbCircle
 10
132.36
 20
62.56693370000001
 30
0.0
 40
3.4
100
AcDbArc
 50
100.0
 51
180.0
  0
LINE
  5
189
330
834
100
AcDbEntity
  8
Cutout
  6
Continuous
100
AcDbLine
 10
136.3695962
 20
66.72638410000002
 30
0.0
 11
131.7695962
 21
65.91528000000001
 31
0.0
  0
ARC
  5
18A
330
834
100
AcDbEntity
  8
Cutout
  6
Continuous
100
AcDbCircle
 10
136.96
 20
63.37803780000001
 30
0.0
 40
3.4
100
AcDbArc
 50
0.0
 51
100.0
  0
LINE
  5
18B
330
834
100
AcDbEntity
  8
Origins
  6
CENTERLINE
100
AcDbLine
 10
134.66
 20
71.114654
 30
0.0
 11
134.66
 21
41.52009100000001
 31
0.0
  0
CIRCLE
  5
18C
330
834
100
AcDbEntity
  8
Cutout
  6
Continuous
100
AcDbCircle
 10
134.66
 20
44.03000000000001
 30
0.0
 40
1.6
  0
LINE
  5
18D
330
834
100
AcDbEntity
  8
Cutout
  6
Continuous
100
AcDbLine
 10
140.36
 20
49.681962
 30
0.0
 11
140.36
 21
63.38
 31
0.0
  0
LINE
  5
18E
330
834
100
AcDbEntity
  8
Cutout
  6
Continuous
100
AcDbLine
 10
128.96
 20
62.56693370000001
 30
0.0
 11
128.96
 21
50.49306600000001
 31
0.0
  0
CIRCLE
  5
18F
330
834
100
AcDbEntity
  8
Cutout
  6
Continuous
100
AcDbCircle
 10
134.66
 20
69.03
 30
0.0
 40
1.6
  0
LINE
  5
190
330
834
100
AcDbEntity
  8
Origins
  6
CENTERLINE
100
AcDbLine
 10
143.118266
 20
56.53
 30
0.0
 11
126.733848
 21
56.53000000000001
 31
0.0
  0
TEXT
  5
191
330
834
100
AcDbEntity
  8
INFO
  6
Continuous
100
AcDbText
 10
136.013496
 20
55.85645499999995
 30
0.0
 40
2.0
  1
S1160
 50
270.0
  7
textstyle10
100
AcDbText
  0
LINE
  5
192
330
834
100
AcDbEntity
  8
Origins
  6
CENTERLINE
100
AcDbLine
 10
134.66
 20
46.20000000000001
 30
0.0
 11
134.66
 21
41.86000000000001
 31
0.0
  0
LINE
  5
193
330
834
100
AcDbEntity
  8
Origins
  6
CENTERLINE
100
AcDbLine
 10
136.83
 20
44.03000000000001
 30
0.0
 11
132.49
 21
44.03000000000001
 31
0.0
  0
LINE
  5
194
330
834
100
AcDbEntity
  8
Origins
  6
CENTERLINE
100
AcDbLine
 10
134.66
 20
71.20000000000002
 30
0.0
 11
134.66
 21
66.86000000000001
 31
0.0
  0
LINE
  5
195
330
834
100
AcDbEntity
  8
Origins
  6
CENTERLINE
100
AcDbLine
 10
136.83
 20
69.03
 30
0.0
 11
132.49
 21
69.03
 31
0.0
  0
LINE
  5
196
330
834
100
AcDbEntity
  8
Cutout
  6
Continuous
100
AcDbLine
 10
136.3695962
 20
46.33361600000001
 30
0.0
 11
131.7695962
 21
47.14472000000001
 31
0.0
  0
ARC
  5
197
330
834
100
AcDbEntity
  8
Cutout
  6
Continuous
100
AcDbCircle
 10
107.75
 20
49.681962
 30
0.0
 40
3.4
100
AcDbArc
 50
259.9999999999999
 51
0.0
  0
ARC
  5
198
330
834
100
AcDbEntity
  8
Cutout
  6
Continuous
100
AcDbCircle
 10
103.15
 20
50.49306600000001
 30
0.0
 40
3.4
100
AcDbArc
 50
180.0
 51
259.9999999999999
  0
ARC
  5
199
330
834
100
AcDbEntity
  8
Cutout
  6
Continuous
100
AcDbCircle
 10
103.15
 20
62.56693370000001
 30
0.0
 40
3.4
100
AcDbArc
 50
100.0
 51
180.0
  0
LINE
  5
19A
330
834
100
AcDbEntity
  8
Cutout
  6
Continuous
100
AcDbLine
 10
107.1595962
 20
66.72638410000002
 30
0.0
 11
102.5595962
 21
65.91528000000001
 31
0.0
  0
ARC
  5
19B
330
834
100
AcDbEntity
  8
Cutout
  6
Continuous
100
AcDbCircle
 10
107.75
 20
63.37803780000001
 30
0.0
 40
3.4
100
AcDbArc
 50
0.0
 51
100.0
  0
LINE
  5
19C
330
834
100
AcDbEntity
  8
Origins
  6
CENTERLINE
100
AcDbLine
 10
105.45
 20
71.114654
 30
0.0
 11
105.45
 21
41.52009100000001
 31
0.0
  0
CIRCLE
  5
19D
330
834
100
AcDbEntity
  8
Cutout
  6
Continuous
100
AcDbCircle
 10
105.45
 20
44.03000000000001
 30
0.0
 40
1.6
  0
LINE
  5
19E
330
834
100
AcDbEntity
  8
Cutout
  6
Continuous
100
AcDbLine
 10
111.15
 20
49.681962
 30
0.0
 11
111.15
 21
63.38
 31
0.0
  0
LINE
  5
19F
330
834
100
AcDbEntity
  8
Cutout
  6
Continuous
100
AcDbLine
 10
99.75000000000004
 20
62.56693370000001
 30
0.0
 11
99.74999999999999
 21
50.49306600000001
 31
0.0
  0
CIRCLE
  5
1A0
330
834
100
AcDbEntity
  8
Cutout
  6
Continuous
100
AcDbCircle
 10
105.45
 20
69.03
 30
0.0
 40
1.6
  0
LINE
  5
1A1
330
834
100
AcDbEntity
  8
Origins
  6
CENTERLINE
100
AcDbLine
 10
113.908266
 20
56.53
 30
0.0
 11
97.52384800000003
 21
56.53000000000001
 31
0.0
  0
TEXT
  5
1A2
330
834
100
AcDbEntity
  8
INFO
  6
Continuous
100
AcDbText
 10
106.803496
 20
55.85645499999998
 30
0.0
 40
2.0
  1
S1160
 50
270.0
  7
textstyle11
100
AcDbText
  0
LINE
  5
1A3
330
834
100
AcDbEntity
  8
Origins
  6
CENTERLINE
100
AcDbLine
 10
105.45
 20
46.20000000000001
 30
0.0
 11
105.45
 21
41.86000000000001
 31
0.0
  0
LINE
  5
1A4
330
834
100
AcDbEntity
  8
Origins
  6
CENTERLINE
100
AcDbLine
 10
107.62
 20
44.03000000000001
 30
0.0
 11
103.28
 21
44.03000000000001
 31
0.0
  0
LINE
  5
1A5
330
834
100
AcDbEntity
  8
Origins
  6
CENTERLINE
100
AcDbLine
 10
105.45
 20
71.20000000000002
 30
0.0
 11
105.45
 21
66.86000000000001
 31
0.0
  0
LINE
  5
1A6
330
834
100
AcDbEntity
  8
Origins
  6
CENTERLINE
100
AcDbLine
 10
107.62
 20
69.03
 30
0.0
 11
103.28
 21
69.03
 31
0.0
  0
LINE
  5
1A7
330
834
100
AcDbEntity
  8
Cutout
  6
Continuous
100
AcDbLine
 10
107.1595962
 20
46.33361600000001
 30
0.0
 11
102.5595962
 21
47.14472000000001
 31
0.0
  0
ARC
  5
1A8
330
834
100
AcDbEntity
  8
Cutout
  6
Continuous
100
AcDbCircle
 10
86.16000000000001
 20
49.681962
 30
0.0
 40
3.4
100
AcDbArc
 50
259.9999999999999
 51
0.0
  0
ARC
  5
1A9
330
834
100
AcDbEntity
  8
Cutout
  6
Continuous
100
AcDbCircle
 10
81.55999999999999
 20
50.49306600000001
 30
0.0
 40
3.4
100
AcDbArc
 50
180.0
 51
259.9999999999999
  0
ARC
  5
1AA
330
834
100
AcDbEntity
  8
Cutout
  6
Continuous
100
AcDbCircle
 10
81.55999999999999
 20
62.56693370000001
 30
0.0
 40
3.4
100
AcDbArc
 50
100.0
 51
180.0
  0
LINE
  5
1AB
330
834
100
AcDbEntity
  8
Cutout
  6
Continuous
100
AcDbLine
 10
85.56959620000002
 20
66.72638410000002
 30
0.0
 11
80.9695962
 21
65.91528000000001
 31
0.0
  0
ARC
  5
1AC
330
834
100
AcDbEntity
  8
Cutout
  6
Continuous
100
AcDbCircle
 10
86.16000000000001
 20
63.37803780000001
 30
0.0
 40
3.4
100
AcDbArc
 50
0.0
 51
100.0
  0
LINE
  5
1AD
330
834
100
AcDbEntity
  8
Origins
  6
CENTERLINE
100
AcDbLine
 10
83.86
 20
71.114654
 30
0.0
 11
83.86
 21
41.52009100000001
 31
0.0
  0
CIRCLE
  5
1AE
330
834
100
AcDbEntity
  8
Cutout
  6
Continuous
100
AcDbCircle
 10
83.86
 20
44.03000000000001
 30
0.0
 40
1.6
  0
LINE
  5
1AF
330
834
100
AcDbEntity
  8
Cutout
  6
Continuous
100
AcDbLine
 10
89.55999999999999
 20
49.681962
 30
0.0
 11
89.55999999999999
 21
63.38
 31
0.0
  0
LINE
  5
1B0
330
834
100
AcDbEntity
  8
Cutout
  6
Continuous
100
AcDbLine
 10
78.16000000000001
 20
62.56693370000001
 30
0.0
 11
78.15999999999995
 21
50.49306600000001
 31
0.0
  0
CIRCLE
  5
1B1
330
834
100
AcDbEntity
  8
Cutout
  6
Continuous
100
AcDbCircle
 10
83.86
 20
69.03
 30
0.0
 40
1.6
  0
LINE
  5
1B2
330
834
100
AcDbEntity
  8
Origins
  6
CENTERLINE
100
AcDbLine
 10
92.31826599999998
 20
56.53
 30
0.0
 11
75.933848
 21
56.53000000000001
 31
0.0
  0
TEXT
  5
1B3
330
834
100
AcDbEntity
  8
INFO
  6
Continuous
100
AcDbText
 10
85.213496
 20
55.85645499999998
 30
0.0
 40
2.0
  1
S1160
 50
270.0
  7
textstyle12
100
AcDbText
  0
LINE
  5
1B4
330
834
100
AcDbEntity
  8
Origins
  6
CENTERLINE
100
AcDbLine
 10
83.86
 20
46.20000000000001
 30
0.0
 11
83.86
 21
41.86000000000001
 31
0.0
  0
LINE
  5
1B5
330
834
100
AcDbEntity
  8
Origins
  6
CENTERLINE
100
AcDbLine
 10
86.02999999999996
 20
44.03000000000001
 30
0.0
 11
81.68999999999998
 21
44.03000000000001
 31
0.0
  0
LINE
  5
1B6
330
834
100
AcDbEntity
  8
Origins
  6
CENTERLINE
100
AcDbLine
 10
83.86
 20
71.20000000000002
 30
0.0
 11
83.86
 21
66.86000000000001
 31
0.0
  0
LINE
  5
1B7
330
834
100
AcDbEntity
  8
Origins
  6
CENTERLINE
100
AcDbLine
 10
86.03000000000002
 20
69.03
 30
0.0
 11
81.68999999999998
 21
69.03
 31
0.0
  0
LINE
  5
1B8
330
834
100
AcDbEntity
  8
Cutout
  6
Continuous
100
AcDbLine
 10
85.56959619999996
 20
46.33361600000001
 30
0.0
 11
80.96959619999994
 21
47.14472000000001
 31
0.0
  0
ARC
  5
1B9
330
834
100
AcDbEntity
  8
Cutout
  6
Continuous
100
AcDbCircle
 10
56.95
 20
49.68196200000001
 30
0.0
 40
3.4
100
AcDbArc
 50
259.9999999999999
 51
0.0
  0
ARC
  5
1BA
330
834
100
AcDbEntity
  8
Cutout
  6
Continuous
100
AcDbCircle
 10
52.34999999999998
 20
50.49306600000002
 30
0.0
 40
3.4
100
AcDbArc
 50
180.0
 51
259.9999999999999
  0
ARC
  5
1BB
330
834
100
AcDbEntity
  8
Cutout
  6
Continuous
100
AcDbCircle
 10
52.34999999999998
 20
62.56693370000002
 30
0.0
 40
3.4
100
AcDbArc
 50
100.0
 51
180.0
  0
LINE
  5
1BC
330
834
100
AcDbEntity
  8
Cutout
  6
Continuous
100
AcDbLine
 10
56.35959620000001
 20
66.72638410000002
 30
0.0
 11
51.7595962
 21
65.91528000000002
 31
0.0
  0
ARC
  5
1BD
330
834
100
AcDbEntity
  8
Cutout
  6
Continuous
100
AcDbCircle
 10
56.95
 20
63.37803780000002
 30
0.0
 40
3.4
100
AcDbArc
 50
0.0
 51
100.0
  0
LINE
  5
1BE
330
834
100
AcDbEntity
  8
Origins
  6
CENTERLINE
100
AcDbLine
 10
54.64999999999999
 20
71.114654
 30
0.0
 11
54.64999999999999
 21
41.52009100000001
 31
0.0
  0
CIRCLE
  5
1BF
330
834
100
AcDbEntity
  8
Cutout
  6
Continuous
100
AcDbCircle
 10
54.64999999999999
 20
44.03000000000002
 30
0.0
 40
1.6
  0
LINE
  5
1C0
330
834
100
AcDbEntity
  8
Cutout
  6
Continuous
100
AcDbLine
 10
60.34999999999998
 20
49.68196200000001
 30
0.0
 11
60.34999999999998
 21
63.38000000000001
 31
0.0
  0
LINE
  5
1C1
330
834
100
AcDbEntity
  8
Cutout
  6
Continuous
100
AcDbLine
 10
48.95
 20
62.56693370000002
 30
0.0
 11
48.94999999999995
 21
50.49306600000002
 31
0.0
  0
CIRCLE
  5
1C2
330
834
100
AcDbEntity
  8
Cutout
  6
Continuous
100
AcDbCircle
 10
54.64999999999999
 20
69.03
 30
0.0
 40
1.6
  0
LINE
  5
1C3
330
834
100
AcDbEntity
  8
Origins
  6
CENTERLINE
100
AcDbLine
 10
63.10826599999997
 20
56.53000000000001
 30
0.0
 11
46.723848
 21
56.53000000000002
 31
0.0
  0
TEXT
  5
1C4
330
834
100
AcDbEntity
  8
INFO
  6
Continuous
100
AcDbText
 10
56.00349599999999
 20
55.85645499999998
 30
0.0
 40
2.0
  1
S1160
 50
270.0
  7
textstyle13
100
AcDbText
  0
LINE
  5
1C5
330
834
100
AcDbEntity
  8
Origins
  6
CENTERLINE
100
AcDbLine
 10
54.64999999999999
 20
46.20000000000002
 30
0.0
 11
54.64999999999999
 21
41.86000000000002
 31
0.0
  0
LINE
  5
1C6
330
834
100
AcDbEntity
  8
Origins
  6
CENTERLINE
100
AcDbLine
 10
56.81999999999995
 20
44.03000000000002
 30
0.0
 11
52.47999999999998
 21
44.03000000000002
 31
0.0
  0
LINE
  5
1C7
330
834
100
AcDbEntity
  8
Origins
  6
CENTERLINE
100
AcDbLine
 10
54.64999999999999
 20
71.20000000000002
 30
0.0
 11
54.64999999999999
 21
66.86000000000001
 31
0.0
  0
LINE
  5
1C8
330
834
100
AcDbEntity
  8
Origins
  6
CENTERLINE
100
AcDbLine
 10
56.82
 20
69.03
 30
0.0
 11
52.47999999999998
 21
69.03
 31
0.0
  0
LINE
  5
1C9
330
834
100
AcDbEntity
  8
Cutout
  6
Continuous
100
AcDbLine
 10
56.35959619999996
 20
46.33361600000002
 30
0.0
 11
51.75959619999993
 21
47.14472000000002
 31
0.0
  0
ARC
  5
1CA
330
834
100
AcDbEntity
  8
Cutout
  6
Continuous
100
AcDbCircle
 10
35.36
 20
49.68196200000001
 30
0.0
 40
3.4
100
AcDbArc
 50
259.9999999999999
 51
0.0
  0
ARC
  5
1CB
330
834
100
AcDbEntity
  8
Cutout
  6
Continuous
100
AcDbCircle
 10
30.75999999999998
 20
50.49306600000002
 30
0.0
 40
3.4
100
AcDbArc
 50
180.0
 51
259.9999999999999
  0
ARC
  5
1CC
330
834
100
AcDbEntity
  8
Cutout
  6
Continuous
100
AcDbCircle
 10
30.75999999999998
 20
62.56693370000002
 30
0.0
 40
3.4
100
AcDbArc
 50
100.0
 51
180.0
  0
LINE
  5
1CD
330
834
100
AcDbEntity
  8
Cutout
  6
Continuous
100
AcDbLine
 10
34.76959620000001
 20
66.72638410000002
 30
0.0
 11
30.16959619999999
 21
65.91528000000002
 31
0.0
  0
ARC
  5
1CE
330
834
100
AcDbEntity
  8
Cutout
  6
Continuous
100
AcDbCircle
 10
35.36
 20
63.37803780000002
 30
0.0
 40
3.4
100
AcDbArc
 50
0.0
 51
100.0
  0
LINE
  5
1CF
330
834
100
AcDbEntity
  8
Origins
  6
CENTERLINE
100
AcDbLine
 10
33.05999999999999
 20
71.114654
 30
0.0
 11
33.05999999999999
 21
41.52009100000001
 31
0.0
  0
CIRCLE
  5
1D0
330
834
100
AcDbEntity
  8
Cutout
  6
Continuous
100
AcDbCircle
 10
33.05999999999999
 20
44.03000000000002
 30
0.0
 40
1.6
  0
LINE
  5
1D1
330
834
100
AcDbEntity
  8
Cutout
  6
Continuous
100
AcDbLine
 10
38.75999999999998
 20
49.68196200000001
 30
0.0
 11
38.75999999999998
 21
63.38000000000001
 31
0.0
  0
LINE
  5
1D2
330
834
100
AcDbEntity
  8
Cutout
  6
Continuous
100
AcDbLine
 10
27.36
 20
62.56693370000002
 30
0.0
 11
27.35999999999995
 21
50.49306600000002
 31
0.0
  0
CIRCLE
  5
1D3
330
834
100
AcDbEntity
  8
Cutout
  6
Continuous
100
AcDbCircle
 10
33.05999999999999
 20
69.03
 30
0.0
 40
1.6
  0
LINE
  5
1D4
330
834
100
AcDbEntity
  8
Origins
  6
CENTERLINE
100
AcDbLine
 10
41.51826599999997
 20
56.53000000000001
 30
0.0
 11
25.13384799999999
 21
56.53000000000002
 31
0.0
  0
TEXT
  5
1D5
330
834
100
AcDbEntity
  8
INFO
  6
Continuous
100
AcDbText
 10
34.41349599999999
 20
55.85645499999998
 30
0.0
 40
2.0
  1
S1160
 50
270.0
  7
textstyle14
100
AcDbText
  0
LINE
  5
1D6
330
834
100
AcDbEntity
  8
Origins
  6
CENTERLINE
100
AcDbLine
 10
33.05999999999999
 20
46.20000000000002
 30
0.0
 11
33.05999999999999
 21
41.86000000000002
 31
0.0
  0
LINE
  5
1D7
330
834
100
AcDbEntity
  8
Origins
  6
CENTERLINE
100
AcDbLine
 10
35.22999999999995
 20
44.03000000000002
 30
0.0
 11
30.88999999999998
 21
44.03000000000002
 31
0.0
  0
LINE
  5
1D8
330
834
100
AcDbEntity
  8
Origins
  6
CENTERLINE
100
AcDbLine
 10
33.05999999999999
 20
71.20000000000002
 30
0.0
 11
33.05999999999999
 21
66.86000000000001
 31
0.0
  0
LINE
  5
1D9
330
834
100
AcDbEntity
  8
Origins
  6
CENTERLINE
100
AcDbLine
 10
35.23
 20
69.03
 30
0.0
 11
30.88999999999998
 21
69.03
 31
0.0
  0
LINE
  5
1DA
330
834
100
AcDbEntity
  8
Cutout
  6
Continuous
100
AcDbLine
 10
34.76959619999996
 20
46.33361600000002
 30
0.0
 11
30.16959619999993
 21
47.14472000000002
 31
0.0
  0
DIMENSION
  5
1DB
330
834
100
AcDbEntity
  8
BEMASSUNG
100
AcDbDimension
280
     0
  2
*D14
 10
8.7
 20
121.0
 30
0.0
 11
7.099999999999999
 21
115.0625
 31
0.0
 70
    32
 71
     5
 42
3.200000000000001
 73
     0
 74
     0
 75
     0
  3
QCADDimStyle
100
AcDbAlignedDimension
 13
5.499999999999998
 23
126.2
 33
0.0
 14
8.7
 24
126.2
 34
0.0
100
AcDbRotatedDimension
1001
ACAD
1000
DSTYLE
1002
{
1070
   279
1070
     2
1070
    41
1040
2.5
1070
    79
1070
     2
1070
   176
1070
     0
1070
   177
1070
     0
1070
   178
1070
     0
1070
    44
1040
1.25
1070
    42
1040
0.625
1070
   147
1040
0.625
1070
   140
1040
2.5
1070
    78
1070
     8
1002
}
  0
ENDBLK
  5
836
330
834
100
AcDbEntity
  8
0
100
AcDbBlockEnd
  0
BLOCK
  5
838
330
837
100
AcDbEntity
  8
0
100
AcDbBlockBegin
  2
*D2
 70
     1
 10
0.0
 20
0.0
 30
0.0
  3
*D2
  1
*D2
  0
LINE
  5
83A
330
837
100
AcDbEntity
  8
BEMASSUNG
 62
     0
370
    -2
100
AcDbLine
 10
41.45999999999999
 20
98.44000000000001
 30
0.0
 11
43.95999999999999
 21
98.44000000000001
 31
0.0
  0
LINE
  5
83B
330
837
100
AcDbEntity
  8
BEMASSUNG
 62
     0
370
    -2
100
AcDbLine
 10
24.66
 20
98.44
 30
0.0
 11
22.16
 21
98.44
 31
0.0
  0
MTEXT
  5
83C
330
837
100
AcDbEntity
  8
BEMASSUNG
 62
     0
100
AcDbMText
 10
28.3945238095238
 20
98.44
 30
0.0
 40
2.5
 41
0.0
 46
0.0
 71
     5
 72
     1
  1
\A1;%%c11.8
  7
QCADDimTextStyle
 73
     1
 44
1.0
  0
SOLID
  5
83D
330
837
100
AcDbEntity
  8
BEMASSUNG
 62
     0
100
AcDbTrace
 10
24.66
 20
98.02333333333333
 30
0.0
 11
24.66
 21
98.85666666666667
 31
0.0
 12
27.16
 22
98.44
 32
0.0
 13
27.16
 23
98.44
 33
0.0
  0
SOLID
  5
83E
330
837
100
AcDbEntity
  8
BEMASSUNG
 62
     0
100
AcDbTrace
 10
41.45999999999999
 20
98.85666666666668
 30
0.0
 11
41.45999999999999
 21
98.02333333333334
 31
0.0
 12
38.95999999999999
 22
98.44000000000001
 32
0.0
 13
38.95999999999999
 23
98.44000000000001
 33
0.0
  0
LINE
  5
83F
330
837
100
AcDbEntity
  8
BEMASSUNG
 62
     0
100
AcDbLine
 10
32.96999999999999
 20
98.44
 30
0.0
 11
33.15
 21
98.44
 31
0.0
  0
LINE
  5
840
330
837
100
AcDbEntity
  8
BEMASSUNG
 62
     0
100
AcDbLine
 10
33.06
 20
98.35
 30
0.0
 11
33.06
 21
98.53
 31
0.0
  0
POINT
  5
841
330
837
100
AcDbEntity
  8
Defpoints
 62
     0
100
AcDbPoint
 10
38.95999999999999
 20
98.44000000000001
 30
0.0
  0
POINT
  5
842
330
837
100
AcDbEntity
  8
Defpoints
 62
     0
100
AcDbPoint
 10
27.16
 20
98.44
 30
0.0
  0
ENDBLK
  5
839
330
837
100
AcDbEntity
  8
0
100
AcDbBlockEnd
  0
BLOCK
  5
844
330
843
100
AcDbEntity
  8
0
100
AcDbBlockBegin
  2
*D3
 70
     1
 10
0.0
 20
0.0
 30
0.0
  3
*D3
  1
*D3
  0
LINE
  5
846
330
843
100
AcDbEntity
  8
BEMASSUNG
 62
     0
370
    -2
100
AcDbLine
 10
408.355
 20
81.25000000000009
 30
0.0
 11
390.044324
 21
81.25000000000009
 31
0.0
  0
LINE
  5
847
330
843
100
AcDbEntity
  8
BEMASSUNG
 62
     0
370
    -2
100
AcDbLine
 10
408.355
 20
48.75000000000012
 30
0.0
 11
390.044324
 21
48.75000000000013
 31
0.0
  0
LINE
  5
848
330
843
100
AcDbEntity
  8
BEMASSUNG
 62
     0
370
    -2
100
AcDbLine
 10
391.294324
 20
78.75000000000009
 30
0.0
 11
391.294324
 21
69.4345238095238
 31
0.0
  0
LINE
  5
849
330
843
100
AcDbEntity
  8
BEMASSUNG
 62
     0
370
    -2
100
AcDbLine
 10
391.294324
 20
51.25000000000013
 30
0.0
 11
391.294324
 21
60.5654761904762
 31
0.0
  0
SOLID
  5
84A
330
843
100
AcDbEntity
  8
BEMASSUNG
 62
     0
100
AcDbTrace
 10
391.7109906666667
 20
78.75000000000009
 30
0.0
 11
390.8776573333333
 21
78.75000000000009
 31
0.0
 12
391.294324
 22
81.25000000000009
 32
0.0
 13
391.294324
 23
81.25000000000009
 33
0.0
  0
SOLID
  5
84B
330
843
100
AcDbEntity
  8
BEMASSUNG
 62
     0
100
AcDbTrace
 10
390.8776573333333
 20
51.25000000000013
 30
0.0
 11
391.7109906666667
 21
51.25000000000013
 31
0.0
 12
391.294324
 22
48.75000000000013
 32
0.0
 13
391.294324
 23
48.75000000000013
 33
0.0
  0
MTEXT
  5
84C
330
843
100
AcDbEntity
  8
BEMASSUNG
 62
     0
100
AcDbMText
 10
391.294324
 20
64.99999999999999
 30
0.0
 40
2.5
 41
0.0
 46
0.0
 71
     5
 72
     1
  1
\A1;32.5
  7
QCADDimTextStyle
 11
0.0
 21
1.0
 31
0.0
 73
     1
 44
1.0
  0
POINT
  5
84D
330
843
100
AcDbEntity
  8
Defpoints
 62
     0
100
AcDbPoint
 10
408.98
 20
81.25000000000009
 30
0.0
  0
POINT
  5
84E
330
843
100
AcDbEntity
  8
Defpoints
 62
     0
100
AcDbPoint
 10
408.98
 20
48.75000000000012
 30
0.0
  0
POINT
  5
84F
330
843
100
AcDbEntity
  8
Defpoints
 62
     0
100
AcDbPoint
 10
391.294324
 20
48.75000000000013
 30
0.0
  0
ENDBLK
  5
845
330
843
100
AcDbEntity
  8
0
100
AcDbBlockEnd
  0
BLOCK
  5
851
330
850
100
AcDbEntity
  8
0
100
AcDbBlockBegin
  2
*D4
 70
     1
 10
0.0
 20
0.0
 30
0.0
  3
*D4
  1
*D4
  0
LINE
  5
853
330
850
100
AcDbEntity
  8
BEMASSUNG
 62
     0
370
    -2
100
AcDbLine
 10
408.355
 20
84.50000000000004
 30
0.0
 11
382.905167
 21
84.50000000000006
 31
0.0
  0
LINE
  5
854
330
850
100
AcDbEntity
  8
BEMASSUNG
 62
     0
370
    -2
100
AcDbLine
 10
408.355
 20
45.4999999999999
 30
0.0
 11
382.905167
 21
45.49999999999991
 31
0.0
  0
LINE
  5
855
330
850
100
AcDbEntity
  8
BEMASSUNG
 62
     0
370
    -2
100
AcDbLine
 10
384.155167
 20
82.00000000000006
 30
0.0
 11
384.155167
 21
67.58928571428561
 31
0.0
  0
LINE
  5
856
330
850
100
AcDbEntity
  8
BEMASSUNG
 62
     0
370
    -2
100
AcDbLine
 10
384.155167
 20
47.99999999999991
 30
0.0
 11
384.155167
 21
62.41071428571416
 31
0.0
  0
SOLID
  5
857
330
850
100
AcDbEntity
  8
BEMASSUNG
 62
     0
100
AcDbTrace
 10
384.5718336666667
 20
82.00000000000006
 30
0.0
 11
383.7385003333333
 21
82.00000000000006
 31
0.0
 12
384.155167
 22
84.50000000000006
 32
0.0
 13
384.155167
 23
84.50000000000006
 33
0.0
  0
SOLID
  5
858
330
850
100
AcDbEntity
  8
BEMASSUNG
 62
     0
100
AcDbTrace
 10
383.7385003333333
 20
47.99999999999991
 30
0.0
 11
384.5718336666667
 21
47.99999999999991
 31
0.0
 12
384.155167
 22
45.49999999999991
 32
0.0
 13
384.155167
 23
45.49999999999991
 33
0.0
  0
MTEXT
  5
859
330
850
100
AcDbEntity
  8
BEMASSUNG
 62
     0
100
AcDbMText
 10
384.155167
 20
64.9999999999999
 30
0.0
 40
2.5
 41
0.0
 46
0.0
 71
     5
 72
     1
  1
\A1;39
  7
QCADDimTextStyle
 11
0.0
 21
1.0
 31
0.0
 73
     1
 44
1.0
  0
POINT
  5
85A
330
850
100
AcDbEntity
  8
Defpoints
 62
     0
100
AcDbPoint
 10
408.98
 20
84.50000000000004
 30
0.0
  0
POINT
  5
85B
330
850
100
AcDbEntity
  8
Defpoints
 62
     0
100
AcDbPoint
 10
408.98
 20
45.4999999999999
 30
0.0
  0
POINT
  5
85C
330
850
100
AcDbEntity
  8
Defpoints
 62
     0
100
AcDbPoint
 10
384.155167
 20
45.49999999999991
 30
0.0
  0
ENDBLK
  5
852
330
850
100
AcDbEntity
  8
0
100
AcDbBlockEnd
  0
BLOCK
  5
85E
330
85D
100
AcDbEntity
  8
0
100
AcDbBlockBegin
  2
*D5
 70
     1
 10
0.0
 20
0.0
 30
0.0
  3
*D5
  1
*D5
  0
LINE
  5
860
330
85D
100
AcDbEntity
  8
BEMASSUNG
 62
     0
370
    -2
100
AcDbLine
 10
394.73
 20
64.37500000000016
 30
0.0
 11
394.73
 21
36.37494193921124
 31
0.0
  0
LINE
  5
861
330
85D
100
AcDbEntity
  8
BEMASSUNG
 62
     0
370
    -2
100
AcDbLine
 10
423.23
 20
64.37499999999986
 30
0.0
 11
423.23
 21
36.37494193921124
 31
0.0
  0
LINE
  5
862
330
85D
100
AcDbEntity
  8
BEMASSUNG
 62
     0
370
    -2
100
AcDbLine
 10
397.23
 20
37.62494193921124
 30
0.0
 11
404.5454761904762
 21
37.62494193921124
 31
0.0
  0
LINE
  5
863
330
85D
100
AcDbEntity
  8
BEMASSUNG
 62
     0
370
    -2
100
AcDbLine
 10
420.73
 20
37.62494193921124
 30
0.0
 11
413.4145238095238
 21
37.62494193921124
 31
0.0
  0
SOLID
  5
864
330
85D
100
AcDbEntity
  8
BEMASSUNG
 62
     0
100
AcDbTrace
 10
397.23
 20
38.0416086058779
 30
0.0
 11
397.23
 21
37.20827527254458
 31
0.0
 12
394.73
 22
37.62494193921124
 32
0.0
 13
394.73
 23
37.62494193921124
 33
0.0
  0
SOLID
  5
865
330
85D
100
AcDbEntity
  8
BEMASSUNG
 62
     0
100
AcDbTrace
 10
420.73
 20
37.20827527254458
 30
0.0
 11
420.73
 21
38.0416086058779
 31
0.0
 12
423.23
 22
37.62494193921124
 32
0.0
 13
423.23
 23
37.62494193921124
 33
0.0
  0
MTEXT
  5
866
330
85D
100
AcDbEntity
  8
BEMASSUNG
 62
     0
100
AcDbMText
 10
408.98
 20
37.62494193921124
 30
0.0
 40
2.5
 41
0.0
 46
0.0
 71
     5
 72
     1
  1
\A1;28.5
  7
QCADDimTextStyle
 73
     1
 44
1.0
  0
POINT
  5
867
330
85D
100
AcDbEntity
  8
Defpoints
 62
     0
100
AcDbPoint
 10
394.73
 20
65.00000000000016
 30
0.0
  0
POINT
  5
868
330
85D
100
AcDbEntity
  8
Defpoints
 62
     0
100
AcDbPoint
 10
423.23
 20
64.99999999999986
 30
0.0
  0
POINT
  5
869
330
85D
100
AcDbEntity
  8
Defpoints
 62
     0
100
AcDbPoint
 10
423.23
 20
37.62494193921124
 30
0.0
  0
ENDBLK
  5
85F
330
85D
100
AcDbEntity
  8
0
100
AcDbBlockEnd
  0
BLOCK
  5
86B
330
86A
100
AcDbEntity
  8
0
100
AcDbBlockBegin
  2
*D6
 70
     1
 10
0.0
 20
0.0
 30
0.0
  3
*D6
  1
*D6
  0
LINE
  5
86D
330
86A
100
AcDbEntity
  8
BEMASSUNG
 62
     0
370
    -2
100
AcDbLine
 10
397.2299998337331
 20
51.24999982403567
 30
0.0
 11
397.23
 21
51.25000000000009
 31
0.0
  0
MTEXT
  5
86E
330
86A
100
AcDbEntity
  8
BEMASSUNG
 62
     0
100
AcDbMText
 10
389.0334365084118
 20
42.57536967548829
 30
0.0
 40
2.5
 41
0.0
 46
0.0
 71
     5
 72
     1
  1
\A1;R2.5
  7
QCADDimTextStyle
 11
0.6867943334932625
 21
0.7268518029705543
 31
0.0
 73
     1
 44
1.0
  0
SOLID
  5
86F
330
86A
100
AcDbEntity
  8
BEMASSUNG
 62
     0
100
AcDbTrace
 10
396.9271449158288
 20
51.53616412965786
 30
0.0
 11
397.5328547516375
 21
50.96383551841348
 31
0.0
 12
395.513014
 22
49.43287031660928
 32
0.0
 13
395.513014
 23
49.43287031660928
 33
0.0
  0
POINT
  5
870
330
86A
100
AcDbEntity
  8
Defpoints
 62
     0
100
AcDbPoint
 10
395.513014
 20
49.43287031660928
 30
0.0
  0
POINT
  5
871
330
86A
100
AcDbEntity
  8
Defpoints
 62
     0
100
AcDbPoint
 10
397.23
 20
51.25000000000009
 30
0.0
  0
ENDBLK
  5
86C
330
86A
100
AcDbEntity
  8
0
100
AcDbBlockEnd
  0
BLOCK
  5
873
330
872
100
AcDbEntity
  8
0
100
AcDbBlockBegin
  2
*D7
 70
     1
 10
0.0
 20
0.0
 30
0.0
  3
*D7
  1
*D7
  0
LINE
  5
875
330
872
100
AcDbEntity
  8
BEMASSUNG
  6
Continuous
 62
     0
370
    -2
100
AcDbLine
 10
391.111962
 20
118.7882190000001
 30
0.0
 11
391.111962
 21
120.913219479091
 31
0.0
  0
LINE
  5
876
330
872
100
AcDbEntity
  8
BEMASSUNG
  6
Continuous
 62
     0
370
    -2
100
AcDbLine
 10
389.137826888427
 20
118.615504845539
 30
0.0
 11
388.7688244760576
 21
120.7082215076452
 31
0.0
  0
ARC
  5
877
330
872
100
AcDbEntity
  8
BEMASSUNG
  6
Continuous
 62
     0
370
    -2
100
AcDbCircle
 10
391.111962
 20
107.4196283342997
 30
0.0
 40
12.24359114479134
100
AcDbArc
 50
66.56088677581344
 51
78.28044338790671
  0
ARC
  5
878
330
872
100
AcDbEntity
  8
BEMASSUNG
  6
Continuous
 62
     0
370
    -2
100
AcDbCircle
 10
391.111962
 20
107.4196283342997
 30
0.0
 40
12.24359114479134
100
AcDbArc
 50
111.7195566615339
 51
123.4391132736272
  0
ARC
  5
879
330
872
100
AcDbEntity
  8
BEMASSUNG
  6
Continuous
 62
     0
370
    -2
100
AcDbCircle
 10
391.111962
 20
107.4196283342997
 30
0.0
 40
12.24359114479134
100
AcDbArc
 50
90.0
 51
100.0000000494407
  0
SOLID
  5
87A
330
872
100
AcDbEntity
  8
BEMASSUNG
 62
     0
100
AcDbTrace
 10
393.6414380933384
 20
119.822473378072
 30
0.0
 11
393.5563595690437
 21
118.9934944343417
 31
0.0
 12
391.111962
 22
119.663219479091
 32
0.0
 13
391.111962
 23
119.663219479091
 33
0.0
  0
SOLID
  5
87B
330
872
100
AcDbEntity
  8
BEMASSUNG
 62
     0
100
AcDbTrace
 10
386.6949195562592
 20
118.3931962147769
 30
0.0
 11
386.4671828823241
 21
119.1948073747475
 31
0.0
 12
388.9858846992035
 22
119.4772118165672
 32
0.0
 13
388.9858846992035
 23
119.4772118165672
 33
0.0
  0
MTEXT
  5
87C
330
872
100
AcDbEntity
  8
BEMASSUNG
 62
     0
100
AcDbMText
 10
385.213576
 20
118.148774
 30
0.0
 40
2.5
 41
0.0
 46
0.0
 71
     5
 72
     1
  1
\A1;10%%d
  7
QCADDimTextStyle
 11
0.8763070849735729
 21
0.4817529375365752
 31
0.0
 73
     1
 44
1.0
  0
POINT
  5
87D
330
872
100
AcDbEntity
  8
Defpoints
 62
     0
100
AcDbPoint
 10
390.4000604841206
 20
119.642505260478
 30
0.0
  0
POINT
  5
87E
330
872
100
AcDbEntity
  8
Defpoints
 62
     0
100
AcDbPoint
 10
391.111962
 20
108.4670869999999
 30
0.0
  0
POINT
  5
87F
330
872
100
AcDbEntity
  8
Defpoints
 62
     0
100
AcDbPoint
 10
389.246357
 20
118.0
 30
0.0
  0
POINT
  5
880
330
872
100
AcDbEntity
  8
Defpoints
 62
     0
100
AcDbPoint
 10
391.03338
 20
107.865289
 30
0.0
  0
POINT
  5
881
330
872
100
AcDbEntity
  8
Defpoints
 62
     0
100
AcDbPoint
 10
391.111962
 20
118.1632190000001
 30
0.0
  0
ENDBLK
  5
874
330
872
100
AcDbEntity
  8
0
100
AcDbBlockEnd
  0
BLOCK
  5
883
330
882
100
AcDbEntity
  8
0
100
AcDbBlockBegin
  2
*D8
 70
     1
 10
0.0
 20
0.0
 30
0.0
  3
*D8
  1
*D8
  0
LINE
  5
885
330
882
100
AcDbEntity
  8
BEMASSUNG
  6
Continuous
 62
     0
370
    -2
100
AcDbLine
 10
412.26
 20
104.4162018668454
 30
0.0
 11
412.2599999999998
 21
128.2500000000002
 31
0.0
  0
LINE
  5
886
330
882
100
AcDbEntity
  8
BEMASSUNG
  6
Continuous
 62
     0
370
    -2
100
AcDbLine
 10
390.46
 20
104.4162018668452
 30
0.0
 11
390.4599999999998
 21
128.25
 31
0.0
  0
LINE
  5
887
330
882
100
AcDbEntity
  8
BEMASSUNG
  6
Continuous
 62
     0
370
    -2
100
AcDbLine
 10
409.7599999999998
 20
127.0000000000002
 30
0.0
 11
406.0148018095238
 21
127.0000000000001
 31
0.0
  0
LINE
  5
888
330
882
100
AcDbEntity
  8
BEMASSUNG
  6
Continuous
 62
     0
370
    -2
100
AcDbLine
 10
392.9599999999998
 20
127.0
 30
0.0
 11
397.1457541904762
 21
127.0000000000001
 31
0.0
  0
SOLID
  5
889
330
882
100
AcDbEntity
  8
BEMASSUNG
 62
     0
100
AcDbTrace
 10
409.7599999999998
 20
126.5833333333335
 30
0.0
 11
409.7599999999998
 21
127.4166666666668
 31
0.0
 12
412.2599999999998
 22
127.0000000000002
 32
0.0
 13
412.2599999999998
 23
127.0000000000002
 33
0.0
  0
SOLID
  5
88A
330
882
100
AcDbEntity
  8
BEMASSUNG
 62
     0
100
AcDbTrace
 10
392.9599999999998
 20
127.4166666666667
 30
0.0
 11
392.9599999999998
 21
126.5833333333334
 31
0.0
 12
390.4599999999998
 22
127.0
 32
0.0
 13
390.4599999999998
 23
127.0
 33
0.0
  0
MTEXT
  5
88B
330
882
100
AcDbEntity
  8
BEMASSUNG
 62
     0
100
AcDbMText
 10
401.580278
 20
127.0000000000001
 30
0.0
 40
2.5
 41
0.0
 46
0.0
 71
     5
 72
     1
  1
\A1;21.8
  7
QCADDimTextStyle
 73
     1
 44
1.0
  0
POINT
  5
88C
330
882
100
AcDbEntity
  8
Defpoints
 62
     0
100
AcDbPoint
 10
412.26
 20
103.7912018668454
 30
0.0
  0
POINT
  5
88D
330
882
100
AcDbEntity
  8
Defpoints
 62
     0
100
AcDbPoint
 10
390.46
 20
103.7912018668452
 30
0.0
  0
POINT
  5
88E
330
882
100
AcDbEntity
  8
Defpoints
 62
     0
100
AcDbPoint
 10
390.4599999999998
 20
127.0
 30
0.0
  0
ENDBLK
  5
884
330
882
100
AcDbEntity
  8
0
100
AcDbBlockEnd
  0
BLOCK
  5
890
330
88F
100
AcDbEntity
  8
0
100
AcDbBlockBegin
  2
*D9
 70
     1
 10
0.0
 20
0.0
 30
0.0
  3
*D9
  1
*D9
  0
LINE
  5
892
330
88F
100
AcDbEntity
  8
BEMASSUNG
  6
Continuous
 62
     0
370
    -2
100
AcDbLine
 10
394.6617958691065
 20
106.9594908140336
 30
0.0
 11
395.323066
 21
107.57
 31
0.0
  0
MTEXT
  5
893
330
88F
100
AcDbEntity
  8
BEMASSUNG
 62
     0
100
AcDbMText
 10
385.8492323780359
 20
98.82340434670606
 30
0.0
 40
2.5
 41
0.0
 46
0.0
 71
     5
 72
     1
  1
\A1;R3.4
  7
QCADDimTextStyle
 11
0.7347447476426112
 21
0.6783436856134178
 31
0.0
 73
     1
 44
1.0
  0
SOLID
  5
894
330
88F
100
AcDbEntity
  8
BEMASSUNG
 62
     0
100
AcDbTrace
 10
394.3791526667676
 20
107.2656344588847
 30
0.0
 11
394.9444390714455
 21
106.6533471691826
 31
0.0
 12
392.824934
 22
105.2636316000001
 32
0.0
 13
392.824934
 23
105.2636316000001
 33
0.0
  0
POINT
  5
895
330
88F
100
AcDbEntity
  8
Defpoints
 62
     0
100
AcDbPoint
 10
392.824934
 20
105.2636316000001
 30
0.0
  0
POINT
  5
896
330
88F
100
AcDbEntity
  8
Defpoints
 62
     0
100
AcDbPoint
 10
395.323066
 20
107.57
 30
0.0
  0
ENDBLK
  5
891
330
88F
100
AcDbEntity
  8
0
100
AcDbBlockEnd
  0
BLOCK
  5
899
330
898
100
AcDbEntity
  8
0
100
AcDbBlockBegin
  2
*D10
 70
     1
 10
0.0
 20
0.0
 30
0.0
  3
*D10
  1
*D10
  0
LINE
  5
89B
330
898
100
AcDbEntity
  8
BEMASSUNG
  6
Continuous
 62
     0
370
    -2
100
AcDbLine
 10
411.61
 20
106.0880045779318
 30
0.0
 11
411.6100000000001
 21
121.9540837527028
 31
0.0
  0
LINE
  5
89C
330
898
100
AcDbEntity
  8
BEMASSUNG
  6
Continuous
 62
     0
370
    -2
100
AcDbLine
 10
391.11
 20
106.0880045779319
 30
0.0
 11
391.1100000000001
 21
121.9540837527029
 31
0.0
  0
LINE
  5
89D
330
898
100
AcDbEntity
  8
BEMASSUNG
  6
Continuous
 62
     0
370
    -2
100
AcDbLine
 10
409.1100000000001
 20
120.7040837527029
 30
0.0
 11
405.2955978095238
 21
120.7040837527029
 31
0.0
  0
LINE
  5
89E
330
898
100
AcDbEntity
  8
BEMASSUNG
  6
Continuous
 62
     0
370
    -2
100
AcDbLine
 10
393.6100000000001
 20
120.7040837527029
 30
0.0
 11
396.4265501904762
 21
120.7040837527029
 31
0.0
  0
SOLID
  5
89F
330
898
100
AcDbEntity
  8
BEMASSUNG
 62
     0
100
AcDbTrace
 10
409.1100000000001
 20
120.2874170860362
 30
0.0
 11
409.1100000000001
 21
121.1207504193695
 31
0.0
 12
411.6100000000001
 22
120.7040837527028
 32
0.0
 13
411.6100000000001
 23
120.7040837527028
 33
0.0
  0
SOLID
  5
8A0
330
898
100
AcDbEntity
  8
BEMASSUNG
 62
     0
100
AcDbTrace
 10
393.6100000000001
 20
121.1207504193696
 30
0.0
 11
393.6100000000001
 21
120.2874170860363
 31
0.0
 12
391.1100000000001
 22
120.7040837527029
 32
0.0
 13
391.1100000000001
 23
120.7040837527029
 33
0.0
  0
MTEXT
  5
8A1
330
898
100
AcDbEntity
  8
BEMASSUNG
 62
     0
100
AcDbMText
 10
400.861074
 20
120.7040837527029
 30
0.0
 40
2.5
 41
0.0
 46
0.0
 71
     5
 72
     1
  1
\A1;20.5
  7
QCADDimTextStyle
 73
     1
 44
1.0
  0
POINT
  5
8A2
330
898
100
AcDbEntity
  8
Defpoints
 62
     0
100
AcDbPoint
 10
411.61
 20
105.4630045779318
 30
0.0
  0
POINT
  5
8A3
330
898
100
AcDbEntity
  8
Defpoints
 62
     0
100
AcDbPoint
 10
391.11
 20
105.4630045779319
 30
0.0
  0
POINT
  5
8A4
330
898
100
AcDbEntity
  8
Defpoints
 62
     0
100
AcDbPoint
 10
391.1100000000001
 20
120.7040837527029
 30
0.0
  0
ENDBLK
  5
89A
330
898
100
AcDbEntity
  8
0
100
AcDbBlockEnd
  0
BLOCK
  5
8A6
330
8A5
100
AcDbEntity
  8
0
100
AcDbBlockBegin
  2
*D11
 70
     1
 10
0.0
 20
0.0
 30
0.0
  3
*D11
  1
*D11
  0
LINE
  5
8A8
330
8A5
100
AcDbEntity
  8
BEMASSUNG
  6
Continuous
 62
     0
370
    -2
100
AcDbLine
 10
385.2545696777856
 20
108.025177118035
 30
0.0
 11
383.0289953555713
 21
106.8863975360702
 31
0.0
  0
LINE
  5
8A9
330
8A5
100
AcDbEntity
  8
BEMASSUNG
  6
Continuous
 62
     0
370
    -2
100
AcDbLine
 10
392.4654303222143
 20
111.714822881965
 30
0.0
 11
394.6910046444287
 21
112.8536024639298
 31
0.0
  0
MTEXT
  5
8AA
330
8A5
100
AcDbEntity
  8
BEMASSUNG
 62
     0
100
AcDbMText
 10
391.5703534944573
 20
111.2568308906099
 30
0.0
 40
2.5
 41
0.0
 46
0.0
 71
     5
 72
     1
  1
\A1;%%c3.1
  7
QCADDimTextStyle
 11
0.8902297288857445
 21
0.4555118327859483
 31
0.0
 73
     1
 44
1.0
  0
SOLID
  5
8AB
330
8A5
100
AcDbEntity
  8
BEMASSUNG
 62
     0
100
AcDbTrace
 10
392.2756337252202
 20
112.0857519356674
 30
0.0
 11
392.6552269192085
 21
111.3438938282626
 31
0.0
 12
390.239856
 22
110.5760433000001
 32
0.0
 13
390.239856
 23
110.5760433000001
 33
0.0
  0
SOLID
  5
8AC
330
8A5
100
AcDbEntity
  8
BEMASSUNG
 62
     0
100
AcDbTrace
 10
385.4443662747798
 20
107.6542480643326
 30
0.0
 11
385.0647730807915
 21
108.3961061717374
 31
0.0
 12
387.480144
 22
109.1639566999999
 32
0.0
 13
387.480144
 23
109.1639566999999
 33
0.0
  0
LINE
  5
8AD
330
8A5
100
AcDbEntity
  8
BEMASSUNG
  6
Continuous
 62
     0
100
AcDbLine
 10
388.77
 20
109.87
 30
0.0
 11
388.95
 21
109.87
 31
0.0
  0
LINE
  5
8AE
330
8A5
100
AcDbEntity
  8
BEMASSUNG
  6
Continuous
 62
     0
100
AcDbLine
 10
388.86
 20
109.78
 30
0.0
 11
388.86
 21
109.96
 31
0.0
  0
POINT
  5
8AF
330
8A5
100
AcDbEntity
  8
Defpoints
 62
     0
100
AcDbPoint
 10
387.480144
 20
109.1639566999999
 30
0.0
  0
POINT
  5
8B0
330
8A5
100
AcDbEntity
  8
Defpoints
 62
     0
100
AcDbPoint
 10
390.239856
 20
110.5760433000001
 30
0.0
  0
ENDBLK
  5
8A7
330
8A5
100
AcDbEntity
  8
0
100
AcDbBlockEnd
  0
BLOCK
  5
8B2
330
8B1
100
AcDbEntity
  8
0
100
AcDbBlockBegin
  2
*D12
 70
     1
 10
0.0
 20
0.0
 30
0.0
  3
*D12
  1
*D12
  0
LINE
  5
8B4
330
8B1
100
AcDbEntity
  8
BEMASSUNG
  6
Continuous
 62
     0
370
    -2
100
AcDbLine
 10
388.86
 20
109.245
 30
0.0
 11
388.86
 21
96.75
 31
0.0
  0
LINE
  5
8B5
330
8B1
100
AcDbEntity
  8
BEMASSUNG
  6
Continuous
 62
     0
370
    -2
100
AcDbLine
 10
413.86
 20
109.245
 30
0.0
 11
413.86
 21
96.75
 31
0.0
  0
LINE
  5
8B6
330
8B1
100
AcDbEntity
  8
BEMASSUNG
  6
Continuous
 62
     0
370
    -2
100
AcDbLine
 10
391.36
 20
98.0
 30
0.0
 11
399.3378304761905
 21
98.0
 31
0.0
  0
LINE
  5
8B7
330
8B1
100
AcDbEntity
  8
BEMASSUNG
  6
Continuous
 62
     0
370
    -2
100
AcDbLine
 10
411.36
 20
98.0
 30
0.0
 11
404.6354495238095
 21
98.0
 31
0.0
  0
SOLID
  5
8B8
330
8B1
100
AcDbEntity
  8
BEMASSUNG
 62
     0
100
AcDbTrace
 10
391.36
 20
98.41666666666667
 30
0.0
 11
391.36
 21
97.58333333333333
 31
0.0
 12
388.86
 22
98.0
 32
0.0
 13
388.86
 23
98.0
 33
0.0
  0
SOLID
  5
8B9
330
8B1
100
AcDbEntity
  8
BEMASSUNG
 62
     0
100
AcDbTrace
 10
411.36
 20
97.58333333333333
 30
0.0
 11
411.36
 21
98.41666666666667
 31
0.0
 12
413.86
 22
98.0
 32
0.0
 13
413.86
 23
98.0
 33
0.0
  0
MTEXT
  5
8BA
330
8B1
100
AcDbEntity
  8
BEMASSUNG
 62
     0
100
AcDbMText
 10
401.98664
 20
98.0
 30
0.0
 40
2.5
 41
0.0
 46
0.0
 71
     5
 72
     1
  1
\A1;25
  7
QCADDimTextStyle
 73
     1
 44
1.0
  0
POINT
  5
8BB
330
8B1
100
AcDbEntity
  8
Defpoints
 62
     0
100
AcDbPoint
 10
388.86
 20
109.87
 30
0.0
  0
POINT
  5
8BC
330
8B1
100
AcDbEntity
  8
Defpoints
 62
     0
100
AcDbPoint
 10
413.86
 20
109.87
 30
0.0
  0
POINT
  5
8BD
330
8B1
100
AcDbEntity
  8
Defpoints
 62
     0
100
AcDbPoint
 10
413.86
 20
98.0
 30
0.0
  0
ENDBLK
  5
8B3
330
8B1
100
AcDbEntity
  8
0
100
AcDbBlockEnd
  0
BLOCK
  5
8BF
330
8BE
100
AcDbEntity
  8
0
100
AcDbBlockBegin
  2
*D13
 70
     1
 10
0.0
 20
0.0
 30
0.0
  3
*D13
  1
*D13
  0
LINE
  5
8C1
330
8BE
100
AcDbEntity
  8
BEMASSUNG
  6
Continuous
 62
     0
370
    -2
100
AcDbLine
 10
408.835
 20
115.5699999999998
 30
0.0
 11
421.975
 21
115.5699999999998
 31
0.0
  0
LINE
  5
8C2
330
8BE
100
AcDbEntity
  8
BEMASSUNG
  6
Continuous
 62
     0
370
    -2
100
AcDbLine
 10
407.971445
 20
104.1699999999999
 30
0.0
 11
421.975
 21
104.1699999999999
 31
0.0
  0
LINE
  5
8C3
330
8BE
100
AcDbEntity
  8
BEMASSUNG
  6
Continuous
 62
     0
370
    -2
100
AcDbLine
 10
420.725
 20
113.0699999999998
 30
0.0
 11
420.725
 21
106.6699999999999
 31
0.0
  0
SOLID
  5
8C4
330
8BE
100
AcDbEntity
  8
BEMASSUNG
 62
     0
100
AcDbTrace
 10
421.1416666666667
 20
113.0699999999998
 30
0.0
 11
420.3083333333333
 21
113.0699999999998
 31
0.0
 12
420.725
 22
115.5699999999998
 32
0.0
 13
420.725
 23
115.5699999999998
 33
0.0
  0
SOLID
  5
8C5
330
8BE
100
AcDbEntity
  8
BEMASSUNG
 62
     0
100
AcDbTrace
 10
420.3083333333333
 20
106.6699999999999
 30
0.0
 11
421.1416666666667
 21
106.6699999999999
 31
0.0
 12
420.725
 22
104.1699999999999
 32
0.0
 13
420.725
 23
104.1699999999999
 33
0.0
  0
MTEXT
  5
8C6
330
8BE
100
AcDbEntity
  8
BEMASSUNG
 62
     0
100
AcDbMText
 10
420.725
 20
109.87
 30
0.0
 40
2.5
 41
0.0
 46
0.0
 71
     5
 72
     1
  1
\A1;11.4
  7
QCADDimTextStyle
 11
0.0
 21
1.0
 31
0.0
 73
     1
 44
1.0
  0
POINT
  5
8C7
330
8BE
100
AcDbEntity
  8
Defpoints
 62
     0
100
AcDbPoint
 10
408.21
 20
115.5699999999998
 30
0.0
  0
POINT
  5
8C8
330
8BE
100
AcDbEntity
  8
Defpoints
 62
     0
100
AcDbPoint
 10
407.346445
 20
104.1699999999999
 30
0.0
  0
POINT
  5
8C9
330
8BE
100
AcDbEntity
  8
Defpoints
 62
     0
100
AcDbPoint
 10
420.725
 20
104.1699999999999
 30
0.0
  0
ENDBLK
  5
8C0
330
8BE
100
AcDbEntity
  8
0
100
AcDbBlockEnd
  0
BLOCK
  5
8D9
330
8D8
100
AcDbEntity
  8
0
100
AcDbBlockBegin
  2
*D14
 70
     1
 10
0.0
 20
0.0
 30
0.0
  3
*D14
  1
*D14
  0
LINE
  5
8DB
330
8D8
100
AcDbEntity
  8
BEMASSUNG
 62
     0
370
    -2
100
AcDbLine
 10
5.499999999999998
 20
125.575
 30
0.0
 11
5.499999999999998
 21
119.75
 31
0.0
  0
LINE
  5
8DC
330
8D8
100
AcDbEntity
  8
BEMASSUNG
 62
     0
370
    -2
100
AcDbLine
 10
8.7
 20
125.575
 30
0.0
 11
8.7
 21
119.75
 31
0.0
  0
LINE
  5
8DD
330
8D8
100
AcDbEntity
  8
BEMASSUNG
 62
     0
370
    -2
100
AcDbLine
 10
2.999999999999998
 20
121.0
 30
0.0
 11
0.4999999999999982
 21
121.0
 31
0.0
  0
LINE
  5
8DE
330
8D8
100
AcDbEntity
  8
BEMASSUNG
 62
     0
370
    -2
100
AcDbLine
 10
11.2
 20
121.0
 30
0.0
 11
13.7
 21
121.0
 31
0.0
  0
SOLID
  5
8DF
330
8D8
100
AcDbEntity
  8
BEMASSUNG
 62
     0
100
AcDbTrace
 10
2.999999999999998
 20
120.5833333333333
 30
0.0
 11
2.999999999999998
 21
121.4166666666667
 31
0.0
 12
5.499999999999998
 22
121.0
 32
0.0
 13
5.499999999999998
 23
121.0
 33
0.0
  0
SOLID
  5
8E0
330
8D8
100
AcDbEntity
  8
BEMASSUNG
 62
     0
100
AcDbTrace
 10
11.2
 20
121.4166666666667
 30
0.0
 11
11.2
 21
120.5833333333333
 31
0.0
 12
8.7
 22
121.0
 32
0.0
 13
8.7
 23
121.0
 33
0.0
  0
MTEXT
  5
8E1
330
8D8
100
AcDbEntity
  8
BEMASSUNG
 62
     0
100
AcDbMText
 10
7.099999999999999
 20
115.0625
 30
0.0
 40
2.5
 41
0.0
 46
0.0
 71
     5
 72
     1
  1
\A1;3.2
  7
QCADDimTextStyle
 73
     1
 44
1.0
  0
POINT
  5
8E2
330
8D8
100
AcDbEntity
  8
Defpoints
 62
     0
100
AcDbPoint
 10
5.499999999999998
 20
126.2
 30
0.0
  0
POINT
  5
8E3
330
8D8
100
AcDbEntity
  8
Defpoints
 62
     0
100
AcDbPoint
 10
8.7
 20
126.2
 30
0.0
  0
POINT
  5
8E4
330
8D8
100
AcDbEntity
  8
Defpoints
 62
     0
100
AcDbPoint
 10
8.7
 20
121.0
 30
0.0
  0
ENDBLK
  5
8DA
330
8D8
100
AcDbEntity
  8
0
100
AcDbBlockEnd
  0
BLOCK
  5
8E7
330
8E6
100
AcDbEntity
  8
0
100
AcDbBlockBegin
  2
*D15
 70
     1
 10
0.0
 20
0.0
 30
0.0
  3
*D15
  1
*D15
  0
LINE
  5
8E9
330
8E6
100
AcDbEntity
  8
BEMASSUNG
 62
     0
370
    -2
100
AcDbLine
 10
395.8299998337332
 20
51.49999982403578
 30
0.0
 11
395.83
 21
51.50000000000016
 31
0.0
  0
MTEXT
  5
8EA
330
8E6
100
AcDbEntity
  8
BEMASSUNG
 62
     0
100
AcDbMText
 10
390.0
 20
42.0
 30
0.0
 40
2.5
 41
0.0
 46
0.0
 71
     5
 72
     1
  1
\A1;R2.5
  7
QCADDimTextStyle
 11
0.6867943334932576
 21
0.7268518029705588
 31
0.0
 73
     1
 44
1.0
  0
SOLID
  5
8EB
330
8E6
100
AcDbEntity
  8
BEMASSUNG
 62
     0
100
AcDbTrace
 10
395.5271449158287
 20
51.78616412965798
 30
0.0
 11
396.1328547516376
 21
51.21383551841359
 31
0.0
 12
394.113014
 22
49.68287031660939
 32
0.0
 13
394.113014
 23
49.68287031660939
 33
0.0
  0
POINT
  5
8EC
330
8E6
100
AcDbEntity
  8
Defpoints
 62
     0
100
AcDbPoint
 10
394.113014
 20
49.68287031660939
 30
0.0
  0
POINT
  5
8ED
330
8E6
100
AcDbEntity
  8
Defpoints
 62
     0
100
AcDbPoint
 10
395.83
 20
51.50000000000016
 30
0.0
  0
ENDBLK
  5
8E8
330
8E6
100
AcDbEntity
  8
0
100
AcDbBlockEnd
  0
BLOCK
  5
8EF
330
8EE
100
AcDbEntity
  8
0
100
AcDbBlockBegin
  2
*D16
 70
     1
 10
0.0
 20
0.0
 30
0.0
  3
*D16
  1
*D16
  0
LINE
  5
8F1
330
8EE
100
AcDbEntity
  8
BEMASSUNG
 62
     0
370
    -2
100
AcDbLine
 10
404.0325567224569
 20
86.80563766082798
 30
0.0
 11
401.8694815532233
 21
88.05907525889383
 31
0.0
  0
LINE
  5
8F2
330
8EE
100
AcDbEntity
  8
BEMASSUNG
 62
     0
370
    -2
100
AcDbLine
 10
411.1274432775431
 20
82.69436233917202
 30
0.0
 11
413.2905184467767
 21
81.44092474110617
 31
0.0
  0
MTEXT
  5
8F3
330
8EE
100
AcDbEntity
  8
BEMASSUNG
 62
     0
100
AcDbMText
 10
412.5
 20
84.5
 30
0.0
 40
2.5
 41
0.0
 46
0.0
 71
     5
 72
     1
  1
\A1;%%c3.2
  7
QCADDimTextStyle
 11
0.8652300676934371
 21
-0.5013750392263363
 31
0.0
 73
     1
 44
1.0
  0
SOLID
  5
8F4
330
8EE
100
AcDbEntity
  8
BEMASSUNG
 62
     0
100
AcDbTrace
 10
411.3363495438874
 20
83.05487486737762
 30
0.0
 11
410.9185370111988
 21
82.33384981096641
 31
0.0
 12
408.9643681083095
 22
83.94779993723786
 32
0.0
 13
408.9643681083095
 23
83.94779993723786
 33
0.0
  0
SOLID
  5
8F5
330
8EE
100
AcDbEntity
  8
BEMASSUNG
 62
     0
100
AcDbTrace
 10
403.8236504561126
 20
86.44512513262238
 30
0.0
 11
404.2414629888012
 21
87.16615018903359
 31
0.0
 12
406.1956318916905
 22
85.55220006276214
 32
0.0
 13
406.1956318916905
 23
85.55220006276214
 33
0.0
  0
LINE
  5
8F6
330
8EE
100
AcDbEntity
  8
BEMASSUNG
 62
     0
100
AcDbLine
 10
407.49
 20
84.75
 30
0.0
 11
407.67
 21
84.75
 31
0.0
  0
LINE
  5
8F7
330
8EE
100
AcDbEntity
  8
BEMASSUNG
 62
     0
100
AcDbLine
 10
407.58
 20
84.66
 30
0.0
 11
407.58
 21
84.84
 31
0.0
  0
POINT
  5
8F8
330
8EE
100
AcDbEntity
  8
Defpoints
 62
     0
100
AcDbPoint
 10
406.1956318916905
 20
85.55220006276214
 30
0.0
  0
POINT
  5
8F9
330
8EE
100
AcDbEntity
  8
Defpoints
 62
     0
100
AcDbPoint
 10
408.9643681083095
 20
83.94779993723786
 30
0.0
  0
ENDBLK
  5
8F0
330
8EE
100
AcDbEntity
  8
0
100
AcDbBlockEnd
  0
BLOCK
  5
8FB
330
8FA
100
AcDbEntity
  8
0
100
AcDbBlockBegin
  2
*D17
 70
     1
 10
0.0
 20
0.0
 30
0.0
  3
*D17
  1
*D17
  0
LINE
  5
8FD
330
8FA
100
AcDbEntity
  8
BEMASSUNG
 62
     0
370
    -2
100
AcDbLine
 10
0.0
 20
131.125
 30
0.0
 11
0.0
 21
135.75
 31
0.0
  0
LINE
  5
8FE
330
8FA
100
AcDbEntity
  8
BEMASSUNG
 62
     0
370
    -2
100
AcDbLine
 10
424.0
 20
131.125
 30
0.0
 11
424.0
 21
135.75
 31
0.0
  0
LINE
  5
8FF
330
8FA
100
AcDbEntity
  8
BEMASSUNG
 62
     0
370
    -2
100
AcDbLine
 10
2.5
 20
134.5
 30
0.0
 11
421.5
 21
134.5
 31
0.0
  0
SOLID
  5
900
330
8FA
100
AcDbEntity
  8
BEMASSUNG
 62
     0
100
AcDbTrace
 10
2.5
 20
134.9166666666667
 30
0.0
 11
2.5
 21
134.0833333333333
 31
0.0
 12
0.0
 22
134.5
 32
0.0
 13
0.0
 23
134.5
 33
0.0
  0
SOLID
  5
901
330
8FA
100
AcDbEntity
  8
BEMASSUNG
 62
     0
100
AcDbTrace
 10
421.5
 20
134.0833333333333
 30
0.0
 11
421.5
 21
134.9166666666667
 31
0.0
 12
424.0
 22
134.5
 32
0.0
 13
424.0
 23
134.5
 33
0.0
  0
MTEXT
  5
902
330
8FA
100
AcDbEntity
  8
BEMASSUNG
 62
     0
100
AcDbMText
 10
212.0
 20
136.375
 30
0.0
 40
2.5
 41
0.0
 46
0.0
 71
     5
 72
     1
  1
\A1;424
  7
QCADDimTextStyle
 73
     1
 44
1.0
  0
POINT
  5
903
330
8FA
100
AcDbEntity
  8
Defpoints
 62
     0
100
AcDbPoint
 10
0.0
 20
130.5
 30
0.0
  0
POINT
  5
904
330
8FA
100
AcDbEntity
  8
Defpoints
 62
     0
100
AcDbPoint
 10
424.0
 20
130.5
 30
0.0
  0
POINT
  5
905
330
8FA
100
AcDbEntity
  8
Defpoints
 62
     0
100
AcDbPoint
 10
424.0
 20
134.5
 30
0.0
  0
ENDBLK
  5
8FC
330
8FA
100
AcDbEntity
  8
0
100
AcDbBlockEnd
  0
BLOCK
  5
907
330
906
100
AcDbEntity
  8
0
100
AcDbBlockBegin
  2
*D18
 70
     1
 10
0.0
 20
0.0
 30
0.0
  3
*D18
  1
*D18
  0
LINE
  5
909
330
906
100
AcDbEntity
  8
BEMASSUNG
 62
     0
370
    -2
100
AcDbLine
 10
-0.625
 20
0.0
 30
0.0
 11
-5.249999999999988
 21
0.0
 31
0.0
  0
LINE
  5
90A
330
906
100
AcDbEntity
  8
BEMASSUNG
 62
     0
370
    -2
100
AcDbLine
 10
31.035
 20
98.69000000000001
 30
0.0
 11
-5.249999999999981
 21
98.69000000000001
 31
0.0
  0
LINE
  5
90B
330
906
100
AcDbEntity
  8
BEMASSUNG
 62
     0
370
    -2
100
AcDbLine
 10
-3.999999999999988
 20
2.5
 30
0.0
 11
-3.999999999999981
 21
96.19000000000001
 31
0.0
  0
SOLID
  5
90C
330
906
100
AcDbEntity
  8
BEMASSUNG
 62
     0
100
AcDbTrace
 10
-4.416666666666655
 20
2.5
 30
0.0
 11
-3.583333333333321
 21
2.5
 31
0.0
 12
-3.999999999999988
 22
0.0
 32
0.0
 13
-3.999999999999988
 23
0.0
 33
0.0
  0
SOLID
  5
90D
330
906
100
AcDbEntity
  8
BEMASSUNG
 62
     0
100
AcDbTrace
 10
-3.583333333333315
 20
96.19000000000001
 30
0.0
 11
-4.416666666666648
 21
96.19000000000001
 31
0.0
 12
-3.999999999999981
 22
98.69000000000001
 32
0.0
 13
-3.999999999999981
 23
98.69000000000001
 33
0.0
  0
MTEXT
  5
90E
330
906
100
AcDbEntity
  8
BEMASSUNG
 62
     0
100
AcDbMText
 10
-5.874999999999984
 20
49.34500000000001
 30
0.0
 40
2.5
 41
0.0
 46
0.0
 71
     5
 72
     1
  1
\A1;98.69
  7
QCADDimTextStyle
 11
6.299776003547346E-17
 21
1.0
 31
0.0
 73
     1
 44
1.0
  0
POINT
  5
90F
330
906
100
AcDbEntity
  8
Defpoints
 62
     0
100
AcDbPoint
 10
0.0
 20
0.0
 30
0.0
  0
POINT
  5
910
330
906
100
AcDbEntity
  8
Defpoints
 62
     0
100
AcDbPoint
 10
31.66
 20
98.69000000000001
 30
0.0
  0
POINT
  5
911
330
906
100
AcDbEntity
  8
Defpoints
 62
     0
100
AcDbPoint
 10
-3.999999999999981
 20
98.69000000000001
 30
0.0
  0
ENDBLK
  5
908
330
906
100
AcDbEntity
  8
0
100
AcDbBlockEnd
  0
BLOCK
  5
913
330
912
100
AcDbEntity
  8
0
100
AcDbBlockBegin
  2
*D19
 70
     1
 10
0.0
 20
0.0
 30
0.0
  3
*D19
  1
*D19
  0
LINE
  5
915
330
912
100
AcDbEntity
  8
BEMASSUNG
 62
     0
370
    -2
100
AcDbLine
 10
29.29433320656152
 20
101.0619444813112
 30
0.0
 11
34.02566679343849
 21
96.31805551868885
 31
0.0
  0
MTEXT
  5
916
330
912
100
AcDbEntity
  8
BEMASSUNG
 62
     0
100
AcDbMText
 10
34.287581
 20
100.014067
 30
0.0
 40
2.5
 41
0.0
 46
0.0
 71
     5
 72
     1
  1
\A1;%%c11.7
  7
QCADDimTextStyle
 11
0.7061691920711899
 21
-0.7080431287496003
 31
0.0
 73
     1
 44
1.0
  0
SOLID
  5
917
330
912
100
AcDbEntity
  8
BEMASSUNG
 62
     0
100
AcDbTrace
 10
33.73064882312615
 20
96.02381835532586
 30
0.0
 11
34.32068476375083
 21
96.61229268205184
 31
0.0
 12
35.79108977361646
 22
94.54794769681484
 32
0.0
 13
35.79108977361646
 23
94.54794769681484
 33
0.0
  0
SOLID
  5
918
330
912
100
AcDbEntity
  8
BEMASSUNG
 62
     0
100
AcDbTrace
 10
29.58935117687385
 20
101.3561816446742
 30
0.0
 11
28.99931523624918
 21
100.7677073179482
 31
0.0
 12
27.52891022638354
 22
102.8320523031852
 32
0.0
 13
27.52891022638354
 23
102.8320523031852
 33
0.0
  0
POINT
  5
919
330
912
100
AcDbEntity
  8
Defpoints
 62
     0
100
AcDbPoint
 10
27.52891022638354
 20
102.8320523031852
 30
0.0
  0
POINT
  5
91A
330
912
100
AcDbEntity
  8
Defpoints
 62
     0
100
AcDbPoint
 10
35.79108977361646
 20
94.54794769681484
 30
0.0
  0
ENDBLK
  5
914
330
912
100
AcDbEntity
  8
0
100
AcDbBlockEnd
  0
BLOCK
  5
91C
330
91B
100
AcDbEntity
  8
0
100
AcDbBlockBegin
  2
*D20
 70
     1
 10
0.0
 20
0.0
 30
0.0
  3
*D20
  1
*D20
  0
LINE
  5
91E
330
91B
100
AcDbEntity
  8
BEMASSUNG
 62
     0
370
    -2
100
AcDbLine
 10
9.725000000000001
 20
4.05
 30
0.0
 11
18.25
 21
4.05
 31
0.0
  0
LINE
  5
91F
330
91B
100
AcDbEntity
  8
BEMASSUNG
 62
     0
370
    -2
100
AcDbLine
 10
9.725000000000001
 20
0.0
 30
0.0
 11
18.25
 21
-0.0000000000000006
 31
0.0
  0
LINE
  5
920
330
91B
100
AcDbEntity
  8
BEMASSUNG
 62
     0
370
    -2
100
AcDbLine
 10
17.0
 20
6.55
 30
0.0
 11
17.0
 21
9.05
 31
0.0
  0
LINE
  5
921
330
91B
100
AcDbEntity
  8
BEMASSUNG
 62
     0
370
    -2
100
AcDbLine
 10
17.0
 20
-2.5
 30
0.0
 11
17.0
 21
-5.0
 31
0.0
  0
SOLID
  5
922
330
91B
100
AcDbEntity
  8
BEMASSUNG
 62
     0
100
AcDbTrace
 10
16.58333333333333
 20
6.55
 30
0.0
 11
17.41666666666667
 21
6.55
 31
0.0
 12
17.0
 22
4.05
 32
0.0
 13
17.0
 23
4.05
 33
0.0
  0
SOLID
  5
923
330
91B
100
AcDbEntity
  8
BEMASSUNG
 62
     0
100
AcDbTrace
 10
17.41666666666667
 20
-2.5
 30
0.0
 11
16.58333333333333
 21
-2.5
 31
0.0
 12
17.0
 22
-0.0000000000000005
 32
0.0
 13
17.0
 23
-0.0000000000000005
 33
0.0
  0
MTEXT
  5
924
330
91B
100
AcDbEntity
  8
BEMASSUNG
 62
     0
100
AcDbMText
 10
20.4375
 20
2.024999999999999
 30
0.0
 40
2.5
 41
0.0
 46
0.0
 71
     5
 72
     1
  1
\A1;4.05
  7
QCADDimTextStyle
 73
     1
 44
1.0
  0
POINT
  5
925
330
91B
100
AcDbEntity
  8
Defpoints
 62
     0
100
AcDbPoint
 10
9.100000000000001
 20
4.05
 30
0.0
  0
POINT
  5
926
330
91B
100
AcDbEntity
  8
Defpoints
 62
     0
100
AcDbPoint
 10
9.100000000000001
 20
0.0
 30
0.0
  0
POINT
  5
927
330
91B
100
AcDbEntity
  8
Defpoints
 62
     0
100
AcDbPoint
 10
17.0
 20
-0.0000000000000005
 30
0.0
  0
ENDBLK
  5
91D
330
91B
100
AcDbEntity
  8
0
100
AcDbBlockEnd
  0
BLOCK
  5
929
330
928
100
AcDbEntity
  8
0
100
AcDbBlockBegin
  2
*D21
 70
     1
 10
0.0
 20
0.0
 30
0.0
  3
*D21
  1
*D21
  0
LINE
  5
92B
330
928
100
AcDbEntity
  8
BEMASSUNG
 62
     0
370
    -2
100
AcDbLine
 10
6.925
 20
6.845000000000016
 30
0.0
 11
6.925
 21
13.25
 31
0.0
  0
LINE
  5
92C
330
928
100
AcDbEntity
  8
BEMASSUNG
 62
     0
370
    -2
100
AcDbLine
 10
0.0
 20
6.845000000000016
 30
0.0
 11
0.0
 21
13.25
 31
0.0
  0
LINE
  5
92D
330
928
100
AcDbEntity
  8
BEMASSUNG
 62
     0
370
    -2
100
AcDbLine
 10
4.425
 20
12.0
 30
0.0
 11
2.5
 21
12.0
 31
0.0
  0
SOLID
  5
92E
330
928
100
AcDbEntity
  8
BEMASSUNG
 62
     0
100
AcDbTrace
 10
4.425
 20
11.58333333333333
 30
0.0
 11
4.425
 21
12.41666666666667
 31
0.0
 12
6.925
 22
12.0
 32
0.0
 13
6.925
 23
12.0
 33
0.0
  0
SOLID
  5
92F
330
928
100
AcDbEntity
  8
BEMASSUNG
 62
     0
100
AcDbTrace
 10
2.5
 20
12.41666666666667
 30
0.0
 11
2.5
 21
11.58333333333333
 31
0.0
 12
0.0
 22
12.0
 32
0.0
 13
0.0
 23
12.0
 33
0.0
  0
MTEXT
  5
930
330
928
100
AcDbEntity
  8
BEMASSUNG
 62
     0
100
AcDbMText
 10
3.4625
 20
15.4375
 30
0.0
 40
2.5
 41
0.0
 46
0.0
 71
     5
 72
     1
  1
\A1;6.925
  7
QCADDimTextStyle
 73
     1
 44
1.0
  0
POINT
  5
931
330
928
100
AcDbEntity
  8
Defpoints
 62
     0
100
AcDbPoint
 10
6.925
 20
6.220000000000016
 30
0.0
  0
POINT
  5
932
330
928
100
AcDbEntity
  8
Defpoints
 62
     0
100
AcDbPoint
 10
0.0
 20
6.220000000000016
 30
0.0
  0
POINT
  5
933
330
928
100
AcDbEntity
  8
Defpoints
 62
     0
100
AcDbPoint
 10
0.0
 20
12.0
 30
0.0
  0
ENDBLK
  5
92A
330
928
100
AcDbEntity
  8
0
100
AcDbBlockEnd
  0
BLOCK
  5
935
330
934
100
AcDbEntity
  8
0
100
AcDbBlockBegin
  2
*D22
 70
     1
 10
0.0
 20
0.0
 30
0.0
  3
*D22
  1
*D22
  0
LINE
  5
937
330
934
100
AcDbEntity
  8
BEMASSUNG
 62
     0
370
    -2
100
AcDbLine
 10
6.299999999999999
 20
128.05
 30
0.0
 11
-3.25
 21
128.05
 31
0.0
  0
LINE
  5
938
330
934
100
AcDbEntity
  8
BEMASSUNG
 62
     0
370
    -2
100
AcDbLine
 10
6.299999999999999
 20
124.85
 30
0.0
 11
-3.25
 21
124.85
 31
0.0
  0
LINE
  5
939
330
934
100
AcDbEntity
  8
BEMASSUNG
 62
     0
370
    -2
100
AcDbLine
 10
-2.0
 20
130.55
 30
0.0
 11
-1.999999999999999
 21
133.05
 31
0.0
  0
LINE
  5
93A
330
934
100
AcDbEntity
  8
BEMASSUNG
 62
     0
370
    -2
100
AcDbLine
 10
-2.0
 20
122.35
 30
0.0
 11
-2.0
 21
119.85
 31
0.0
  0
SOLID
  5
93B
330
934
100
AcDbEntity
  8
BEMASSUNG
 62
     0
100
AcDbTrace
 10
-2.416666666666666
 20
130.55
 30
0.0
 11
-1.583333333333333
 21
130.55
 31
0.0
 12
-2.0
 22
128.05
 32
0.0
 13
-2.0
 23
128.05
 33
0.0
  0
SOLID
  5
93C
330
934
100
AcDbEntity
  8
BEMASSUNG
 62
     0
100
AcDbTrace
 10
-1.583333333333333
 20
122.35
 30
0.0
 11
-2.416666666666667
 21
122.35
 31
0.0
 12
-2.0
 22
124.85
 32
0.0
 13
-2.0
 23
124.85
 33
0.0
  0
MTEXT
  5
93D
330
934
100
AcDbEntity
  8
BEMASSUNG
 62
     0
100
AcDbMText
 10
-5.4375
 20
126.45
 30
0.0
 40
2.5
 41
0.0
 46
0.0
 71
     5
 72
     1
  1
\A1;3.2
  7
QCADDimTextStyle
 73
     1
 44
1.0
  0
POINT
  5
93E
330
934
100
AcDbEntity
  8
Defpoints
 62
     0
100
AcDbPoint
 10
6.924999999999999
 20
128.05
 30
0.0
  0
POINT
  5
93F
330
934
100
AcDbEntity
  8
Defpoints
 62
     0
100
AcDbPoint
 10
6.924999999999999
 20
124.85
 30
0.0
  0
POINT
  5
940
330
934
100
AcDbEntity
  8
Defpoints
 62
     0
100
AcDbPoint
 10
-2.0
 20
124.85
 30
0.0
  0
ENDBLK
  5
936
330
934
100
AcDbEntity
  8
0
100
AcDbBlockEnd
  0
BLOCK
  5
942
330
941
100
AcDbEntity
  8
0
100
AcDbBlockBegin
  2
*D23
 70
     1
 10
0.0
 20
0.0
 30
0.0
  3
*D23
  1
*D23
  0
LINE
  5
944
330
941
100
AcDbEntity
  8
BEMASSUNG
 62
     0
370
    -2
100
AcDbLine
 10
424.625
 20
0.0
 30
0.0
 11
431.25
 21
0.0
 31
0.0
  0
LINE
  5
945
330
941
100
AcDbEntity
  8
BEMASSUNG
 62
     0
370
    -2
100
AcDbLine
 10
408.205
 20
65.25
 30
0.0
 11
431.25
 21
65.25
 31
0.0
  0
LINE
  5
946
330
941
100
AcDbEntity
  8
BEMASSUNG
 62
     0
370
    -2
100
AcDbLine
 10
430.0
 20
2.5
 30
0.0
 11
430.0
 21
62.75
 31
0.0
  0
SOLID
  5
947
330
941
100
AcDbEntity
  8
BEMASSUNG
 62
     0
100
AcDbTrace
 10
429.5833333333333
 20
2.5
 30
0.0
 11
430.4166666666667
 21
2.5
 31
0.0
 12
430.0
 22
0.0
 32
0.0
 13
430.0
 23
0.0
 33
0.0
  0
SOLID
  5
948
330
941
100
AcDbEntity
  8
BEMASSUNG
 62
     0
100
AcDbTrace
 10
430.4166666666667
 20
62.75
 30
0.0
 11
429.5833333333333
 21
62.75
 31
0.0
 12
430.0
 22
65.25
 32
0.0
 13
430.0
 23
65.25
 33
0.0
  0
MTEXT
  5
949
330
941
100
AcDbEntity
  8
BEMASSUNG
 62
     0
100
AcDbMText
 10
428.125
 20
32.625
 30
0.0
 40
2.5
 41
0.0
 46
0.0
 71
     5
 72
     1
  1
\A1;65.25
  7
QCADDimTextStyle
 11
0.0
 21
1.0
 31
0.0
 73
     1
 44
1.0
  0
POINT
  5
94A
330
941
100
AcDbEntity
  8
Defpoints
 62
     0
100
AcDbPoint
 10
424.0
 20
0.0
 30
0.0
  0
POINT
  5
94B
330
941
100
AcDbEntity
  8
Defpoints
 62
     0
100
AcDbPoint
 10
407.58
 20
65.25
 30
0.0
  0
POINT
  5
94C
330
941
100
AcDbEntity
  8
Defpoints
 62
     0
100
AcDbPoint
 10
430.0
 20
65.25
 30
0.0
  0
ENDBLK
  5
943
330
941
100
AcDbEntity
  8
0
100
AcDbBlockEnd
  0
BLOCK
  5
94E
330
94D
100
AcDbEntity
  8
0
100
AcDbBlockBegin
  2
*D24
 70
     1
 10
0.0
 20
0.0
 30
0.0
  3
*D24
  1
*D24
  0
LINE
  5
950
330
94D
100
AcDbEntity
  8
BEMASSUNG
 62
     0
370
    -2
100
AcDbLine
 10
424.625
 20
0.0
 30
0.0
 11
443.25
 21
0.0
 31
0.0
  0
LINE
  5
951
330
94D
100
AcDbEntity
  8
BEMASSUNG
 62
     0
370
    -2
100
AcDbLine
 10
424.625
 20
130.5
 30
0.0
 11
443.25
 21
130.5
 31
0.0
  0
LINE
  5
952
330
94D
100
AcDbEntity
  8
BEMASSUNG
 62
     0
370
    -2
100
AcDbLine
 10
442.0
 20
2.5
 30
0.0
 11
442.0
 21
128.0
 31
0.0
  0
SOLID
  5
953
330
94D
100
AcDbEntity
  8
BEMASSUNG
 62
     0
100
AcDbTrace
 10
441.5833333333333
 20
2.5
 30
0.0
 11
442.4166666666667
 21
2.5
 31
0.0
 12
442.0
 22
0.0
 32
0.0
 13
442.0
 23
0.0
 33
0.0
  0
SOLID
  5
954
330
94D
100
AcDbEntity
  8
BEMASSUNG
 62
     0
100
AcDbTrace
 10
442.4166666666667
 20
128.0
 30
0.0
 11
441.5833333333333
 21
128.0
 31
0.0
 12
442.0
 22
130.5
 32
0.0
 13
442.0
 23
130.5
 33
0.0
  0
MTEXT
  5
955
330
94D
100
AcDbEntity
  8
BEMASSUNG
 62
     0
100
AcDbMText
 10
440.125
 20
65.25
 30
0.0
 40
2.5
 41
0.0
 46
0.0
 71
     5
 72
     1
  1
\A1;130.5
  7
QCADDimTextStyle
 11
0.0
 21
1.0
 31
0.0
 73
     1
 44
1.0
  0
POINT
  5
956
330
94D
100
AcDbEntity
  8
Defpoints
 62
     0
100
AcDbPoint
 10
424.0
 20
0.0
 30
0.0
  0
POINT
  5
957
330
94D
100
AcDbEntity
  8
Defpoints
 62
     0
100
AcDbPoint
 10
424.0
 20
130.5
 30
0.0
  0
POINT
  5
958
330
94D
100
AcDbEntity
  8
Defpoints
 62
     0
100
AcDbPoint
 10
442.0
 20
130.5
 30
0.0
  0
ENDBLK
  5
94F
330
94D
100
AcDbEntity
  8
0
100
AcDbBlockEnd
  0
BLOCK
  5
95A
330
959
100
AcDbEntity
  8
0
100
AcDbBlockBegin
  2
*D25
 70
     1
 10
0.0
 20
0.0
 30
0.0
  3
*D25
  1
*D25
  0
LINE
  5
95C
330
959
100
AcDbEntity
  8
BEMASSUNG
 62
     0
370
    -2
100
AcDbLine
 10
393.33
 20
64.625
 30
0.0
 11
393.33
 21
54.75
 31
0.0
  0
LINE
  5
95D
330
959
100
AcDbEntity
  8
BEMASSUNG
 62
     0
370
    -2
100
AcDbLine
 10
421.83
 20
64.62500000000001
 30
0.0
 11
421.83
 21
54.75
 31
0.0
  0
LINE
  5
95E
330
959
100
AcDbEntity
  8
BEMASSUNG
 62
     0
370
    -2
100
AcDbLine
 10
395.83
 20
56.0
 30
0.0
 11
419.33
 21
56.0
 31
0.0
  0
SOLID
  5
95F
330
959
100
AcDbEntity
  8
BEMASSUNG
 62
     0
100
AcDbTrace
 10
395.83
 20
56.41666666666666
 30
0.0
 11
395.83
 21
55.58333333333334
 31
0.0
 12
393.33
 22
56.0
 32
0.0
 13
393.33
 23
56.0
 33
0.0
  0
SOLID
  5
960
330
959
100
AcDbEntity
  8
BEMASSUNG
 62
     0
100
AcDbTrace
 10
419.33
 20
55.58333333333334
 30
0.0
 11
419.33
 21
56.41666666666666
 31
0.0
 12
421.83
 22
56.0
 32
0.0
 13
421.83
 23
56.0
 33
0.0
  0
MTEXT
  5
961
330
959
100
AcDbEntity
  8
BEMASSUNG
 62
     0
100
AcDbMText
 10
407.58
 20
57.875
 30
0.0
 40
2.5
 41
0.0
 46
0.0
 71
     5
 72
     1
  1
\A1;28.5
  7
QCADDimTextStyle
 73
     1
 44
1.0
  0
POINT
  5
962
330
959
100
AcDbEntity
  8
Defpoints
 62
     0
100
AcDbPoint
 10
393.33
 20
65.25
 30
0.0
  0
POINT
  5
963
330
959
100
AcDbEntity
  8
Defpoints
 62
     0
100
AcDbPoint
 10
421.83
 20
65.25000000000001
 30
0.0
  0
POINT
  5
964
330
959
100
AcDbEntity
  8
Defpoints
 62
     0
100
AcDbPoint
 10
421.83
 20
56.0
 30
0.0
  0
ENDBLK
  5
95B
330
959
100
AcDbEntity
  8
0
100
AcDbBlockEnd
  0
BLOCK
  5
966
330
965
100
AcDbEntity
  8
0
100
AcDbBlockBegin
  2
*D26
 70
     1
 10
0.0
 20
0.0
 30
0.0
  3
*D26
  1
*D26
  0
LINE
  5
968
330
965
100
AcDbEntity
  8
BEMASSUNG
 62
     0
370
    -2
100
AcDbLine
 10
395.205
 20
49.0
 30
0.0
 11
388.75
 21
48.99999999999999
 31
0.0
  0
LINE
  5
969
330
965
100
AcDbEntity
  8
BEMASSUNG
 62
     0
370
    -2
100
AcDbLine
 10
395.205
 20
81.5
 30
0.0
 11
388.75
 21
81.5
 31
0.0
  0
LINE
  5
96A
330
965
100
AcDbEntity
  8
BEMASSUNG
 62
     0
370
    -2
100
AcDbLine
 10
390.0
 20
51.49999999999999
 30
0.0
 11
390.0
 21
79.0
 31
0.0
  0
SOLID
  5
96B
330
965
100
AcDbEntity
  8
BEMASSUNG
 62
     0
100
AcDbTrace
 10
389.5833333333333
 20
51.49999999999999
 30
0.0
 11
390.4166666666667
 21
51.49999999999999
 31
0.0
 12
390.0
 22
48.99999999999999
 32
0.0
 13
390.0
 23
48.99999999999999
 33
0.0
  0
SOLID
  5
96C
330
965
100
AcDbEntity
  8
BEMASSUNG
 62
     0
100
AcDbTrace
 10
390.4166666666667
 20
79.0
 30
0.0
 11
389.5833333333333
 21
79.0
 31
0.0
 12
390.0
 22
81.5
 32
0.0
 13
390.0
 23
81.5
 33
0.0
  0
MTEXT
  5
96D
330
965
100
AcDbEntity
  8
BEMASSUNG
 62
     0
100
AcDbMText
 10
388.125
 20
65.25
 30
0.0
 40
2.5
 41
0.0
 46
0.0
 71
     5
 72
     1
  1
\A1;32.5
  7
QCADDimTextStyle
 11
0.0
 21
1.0
 31
0.0
 73
     1
 44
1.0
  0
POINT
  5
96E
330
965
100
AcDbEntity
  8
Defpoints
 62
     0
100
AcDbPoint
 10
395.83
 20
49.0
 30
0.0
  0
POINT
  5
96F
330
965
100
AcDbEntity
  8
Defpoints
 62
     0
100
AcDbPoint
 10
395.83
 20
81.5
 30
0.0
  0
POINT
  5
970
330
965
100
AcDbEntity
  8
Defpoints
 62
     0
100
AcDbPoint
 10
390.0
 20
81.5
 30
0.0
  0
ENDBLK
  5
967
330
965
100
AcDbEntity
  8
0
100
AcDbBlockEnd
  0
BLOCK
  5
972
330
971
100
AcDbEntity
  8
0
100
AcDbBlockBegin
  2
*D27
 70
     1
 10
0.0
 20
0.0
 30
0.0
  3
*D27
  1
*D27
  0
LINE
  5
974
330
971
100
AcDbEntity
  8
BEMASSUNG
 62
     0
370
    -2
100
AcDbLine
 10
406.955
 20
45.75
 30
0.0
 11
382.75
 21
45.75
 31
0.0
  0
LINE
  5
975
330
971
100
AcDbEntity
  8
BEMASSUNG
 62
     0
370
    -2
100
AcDbLine
 10
406.955
 20
84.75
 30
0.0
 11
382.75
 21
84.75
 31
0.0
  0
LINE
  5
976
330
971
100
AcDbEntity
  8
BEMASSUNG
 62
     0
370
    -2
100
AcDbLine
 10
384.0
 20
48.25
 30
0.0
 11
384.0
 21
82.25
 31
0.0
  0
SOLID
  5
977
330
971
100
AcDbEntity
  8
BEMASSUNG
 62
     0
100
AcDbTrace
 10
383.5833333333333
 20
48.25
 30
0.0
 11
384.4166666666667
 21
48.25
 31
0.0
 12
384.0
 22
45.75
 32
0.0
 13
384.0
 23
45.75
 33
0.0
  0
SOLID
  5
978
330
971
100
AcDbEntity
  8
BEMASSUNG
 62
     0
100
AcDbTrace
 10
384.4166666666667
 20
82.25
 30
0.0
 11
383.5833333333333
 21
82.25
 31
0.0
 12
384.0
 22
84.75
 32
0.0
 13
384.0
 23
84.75
 33
0.0
  0
MTEXT
  5
979
330
971
100
AcDbEntity
  8
BEMASSUNG
 62
     0
100
AcDbMText
 10
382.125
 20
65.25
 30
0.0
 40
2.5
 41
0.0
 46
0.0
 71
     5
 72
     1
  1
\A1;39
  7
QCADDimTextStyle
 11
0.0
 21
1.0
 31
0.0
 73
     1
 44
1.0
  0
POINT
  5
97A
330
971
100
AcDbEntity
  8
Defpoints
 62
     0
100
AcDbPoint
 10
407.58
 20
45.75
 30
0.0
  0
POINT
  5
97B
330
971
100
AcDbEntity
  8
Defpoints
 62
     0
100
AcDbPoint
 10
407.58
 20
84.75
 30
0.0
  0
POINT
  5
97C
330
971
100
AcDbEntity
  8
Defpoints
 62
     0
100
AcDbPoint
 10
384.0
 20
84.75
 30
0.0
  0
ENDBLK
  5
973
330
971
100
AcDbEntity
  8
0
100
AcDbBlockEnd
  0
BLOCK
  5
97E
330
97D
100
AcDbEntity
  8
0
100
AcDbBlockBegin
  2
*D28
 70
     1
 10
0.0
 20
0.0
 30
0.0
  3
*D28
  1
*D28
  0
LINE
  5
980
330
97D
100
AcDbEntity
  8
BEMASSUNG
 62
     0
370
    -2
100
AcDbLine
 10
4.75
 20
125.825
 30
0.0
 11
4.75
 21
120.75
 31
0.0
  0
LINE
  5
981
330
97D
100
AcDbEntity
  8
BEMASSUNG
 62
     0
370
    -2
100
AcDbLine
 10
9.100000000000001
 20
125.825
 30
0.0
 11
9.100000000000001
 21
120.75
 31
0.0
  0
LINE
  5
982
330
97D
100
AcDbEntity
  8
BEMASSUNG
 62
     0
370
    -2
100
AcDbLine
 10
2.25
 20
122.0
 30
0.0
 11
-0.25
 21
122.0
 31
0.0
  0
LINE
  5
983
330
97D
100
AcDbEntity
  8
BEMASSUNG
 62
     0
370
    -2
100
AcDbLine
 10
11.6
 20
122.0
 30
0.0
 11
14.1
 21
122.0
 31
0.0
  0
SOLID
  5
984
330
97D
100
AcDbEntity
  8
BEMASSUNG
 62
     0
100
AcDbTrace
 10
2.25
 20
121.5833333333333
 30
0.0
 11
2.25
 21
122.4166666666667
 31
0.0
 12
4.75
 22
122.0
 32
0.0
 13
4.75
 23
122.0
 33
0.0
  0
SOLID
  5
985
330
97D
100
AcDbEntity
  8
BEMASSUNG
 62
     0
100
AcDbTrace
 10
11.6
 20
122.4166666666667
 30
0.0
 11
11.6
 21
121.5833333333333
 31
0.0
 12
9.100000000000001
 22
122.0
 32
0.0
 13
9.100000000000001
 23
122.0
 33
0.0
  0
MTEXT
  5
986
330
97D
100
AcDbEntity
  8
BEMASSUNG
 62
     0
100
AcDbMText
 10
6.925000000000001
 20
116.0625
 30
0.0
 40
2.5
 41
0.0
 46
0.0
 71
     5
 72
     1
  1
\A1;4.35
  7
QCADDimTextStyle
 73
     1
 44
1.0
  0
POINT
  5
987
330
97D
100
AcDbEntity
  8
Defpoints
 62
     0
100
AcDbPoint
 10
4.75
 20
126.45
 30
0.0
  0
POINT
  5
988
330
97D
100
AcDbEntity
  8
Defpoints
 62
     0
100
AcDbPoint
 10
9.100000000000001
 20
126.45
 30
0.0
  0
POINT
  5
989
330
97D
100
AcDbEntity
  8
Defpoints
 62
     0
100
AcDbPoint
 10
9.100000000000001
 20
122.0
 30
0.0
  0
ENDBLK
  5
97F
330
97D
100
AcDbEntity
  8
0
100
AcDbBlockEnd
  0
BLOCK
  5
98B
330
98A
100
AcDbEntity
  8
0
100
AcDbBlockBegin
  2
*D29
 70
     1
 10
0.0
 20
0.0
 30
0.0
  3
*D29
  1
*D29
  0
LINE
  5
98D
330
98A
100
AcDbEntity
  8
BEMASSUNG
 62
     0
370
    -2
100
AcDbLine
 10
407.58
 20
65.875
 30
0.0
 11
407.58
 21
69.25
 31
0.0
  0
LINE
  5
98E
330
98A
100
AcDbEntity
  8
BEMASSUNG
 62
     0
370
    -2
100
AcDbLine
 10
424.0
 20
65.875
 30
0.0
 11
424.0
 21
69.25
 31
0.0
  0
LINE
  5
98F
330
98A
100
AcDbEntity
  8
BEMASSUNG
 62
     0
370
    -2
100
AcDbLine
 10
410.08
 20
68.0
 30
0.0
 11
421.5
 21
68.0
 31
0.0
  0
SOLID
  5
990
330
98A
100
AcDbEntity
  8
BEMASSUNG
 62
     0
100
AcDbTrace
 10
410.08
 20
68.41666666666667
 30
0.0
 11
410.08
 21
67.58333333333333
 31
0.0
 12
407.58
 22
68.0
 32
0.0
 13
407.58
 23
68.0
 33
0.0
  0
SOLID
  5
991
330
98A
100
AcDbEntity
  8
BEMASSUNG
 62
     0
100
AcDbTrace
 10
421.5
 20
67.58333333333333
 30
0.0
 11
421.5
 21
68.41666666666667
 31
0.0
 12
424.0
 22
68.0
 32
0.0
 13
424.0
 23
68.0
 33
0.0
  0
MTEXT
  5
992
330
98A
100
AcDbEntity
  8
BEMASSUNG
 62
     0
100
AcDbMText
 10
415.79
 20
69.875
 30
0.0
 40
2.5
 41
0.0
 46
0.0
 71
     5
 72
     1
  1
\A1;16.42
  7
QCADDimTextStyle
 73
     1
 44
1.0
  0
POINT
  5
993
330
98A
100
AcDbEntity
  8
Defpoints
 62
     0
100
AcDbPoint
 10
407.58
 20
65.25
 30
0.0
  0
POINT
  5
994
330
98A
100
AcDbEntity
  8
Defpoints
 62
     0
100
AcDbPoint
 10
424.0
 20
65.25
 30
0.0
  0
POINT
  5
995
330
98A
100
AcDbEntity
  8
Defpoints
 62
     0
100
AcDbPoint
 10
424.0
 20
68.0
 30
0.0
  0
ENDBLK
  5
98C
330
98A
100
AcDbEntity
  8
0
100
AcDbBlockEnd
  0
BLOCK
  5
997
330
996
100
AcDbEntity
  8
0
100
AcDbBlockBegin
  2
*D30
 70
     1
 10
0.0
 20
0.0
 30
0.0
  3
*D30
  1
*D30
  0
LINE
  5
999
330
996
100
AcDbEntity
  8
BEMASSUNG
 62
     0
370
    -2
100
AcDbLine
 10
31.66
 20
95.89499999999998
 30
0.0
 11
31.66
 21
88.75
 31
0.0
  0
LINE
  5
99A
330
996
100
AcDbEntity
  8
BEMASSUNG
 62
     0
370
    -2
100
AcDbLine
 10
0.0
 20
95.89499999999998
 30
0.0
 11
0.0
 21
88.75
 31
0.0
  0
LINE
  5
99B
330
996
100
AcDbEntity
  8
BEMASSUNG
 62
     0
370
    -2
100
AcDbLine
 10
29.16
 20
90.0
 30
0.0
 11
2.5
 21
90.0
 31
0.0
  0
SOLID
  5
99C
330
996
100
AcDbEntity
  8
BEMASSUNG
 62
     0
100
AcDbTrace
 10
29.16
 20
89.58333333333333
 30
0.0
 11
29.16
 21
90.41666666666667
 31
0.0
 12
31.66
 22
90.0
 32
0.0
 13
31.66
 23
90.0
 33
0.0
  0
SOLID
  5
99D
330
996
100
AcDbEntity
  8
BEMASSUNG
 62
     0
100
AcDbTrace
 10
2.5
 20
90.41666666666667
 30
0.0
 11
2.5
 21
89.58333333333333
 31
0.0
 12
0.0
 22
90.0
 32
0.0
 13
0.0
 23
90.0
 33
0.0
  0
MTEXT
  5
99E
330
996
100
AcDbEntity
  8
BEMASSUNG
 62
     0
100
AcDbMText
 10
15.83
 20
91.875
 30
0.0
 40
2.5
 41
0.0
 46
0.0
 71
     5
 72
     1
  1
\A1;31.66
  7
QCADDimTextStyle
 73
     1
 44
1.0
  0
POINT
  5
99F
330
996
100
AcDbEntity
  8
Defpoints
 62
     0
100
AcDbPoint
 10
31.66
 20
96.51999999999998
 30
0.0
  0
POINT
  5
9A0
330
996
100
AcDbEntity
  8
Defpoints
 62
     0
100
AcDbPoint
 10
0.0
 20
96.51999999999998
 30
0.0
  0
POINT
  5
9A1
330
996
100
AcDbEntity
  8
Defpoints
 62
     0
100
AcDbPoint
 10
0.0
 20
90.0
 30
0.0
  0
ENDBLK
  5
998
330
996
100
AcDbEntity
  8
0
100
AcDbBlockEnd
  0
BLOCK
  5
9A3
330
9A2
100
AcDbEntity
  8
0
100
AcDbBlockBegin
  2
*D31
 70
     1
 10
0.0
 20
0.0
 30
0.0
  3
*D31
  1
*D31
  0
LINE
  5
9A5
330
9A2
100
AcDbEntity
  8
BEMASSUNG
 62
     0
370
    -2
100
AcDbLine
 10
53.25
 20
95.89499999999998
 30
0.0
 11
53.25
 21
79.75
 31
0.0
  0
LINE
  5
9A6
330
9A2
100
AcDbEntity
  8
BEMASSUNG
 62
     0
370
    -2
100
AcDbLine
 10
0.0
 20
95.89499999999998
 30
0.0
 11
0.0
 21
79.75
 31
0.0
  0
LINE
  5
9A7
330
9A2
100
AcDbEntity
  8
BEMASSUNG
 62
     0
370
    -2
100
AcDbLine
 10
50.75
 20
81.0
 30
0.0
 11
2.5
 21
81.0
 31
0.0
  0
SOLID
  5
9A8
330
9A2
100
AcDbEntity
  8
BEMASSUNG
 62
     0
100
AcDbTrace
 10
50.75
 20
80.58333333333333
 30
0.0
 11
50.75
 21
81.41666666666667
 31
0.0
 12
53.25
 22
81.0
 32
0.0
 13
53.25
 23
81.0
 33
0.0
  0
SOLID
  5
9A9
330
9A2
100
AcDbEntity
  8
BEMASSUNG
 62
     0
100
AcDbTrace
 10
2.5
 20
81.41666666666667
 30
0.0
 11
2.5
 21
80.58333333333333
 31
0.0
 12
0.0
 22
81.0
 32
0.0
 13
0.0
 23
81.0
 33
0.0
  0
MTEXT
  5
9AA
330
9A2
100
AcDbEntity
  8
BEMASSUNG
 62
     0
100
AcDbMText
 10
26.625
 20
82.875
 30
0.0
 40
2.5
 41
0.0
 46
0.0
 71
     5
 72
     1
  1
\A1;53.25
  7
QCADDimTextStyle
 73
     1
 44
1.0
  0
POINT
  5
9AB
330
9A2
100
AcDbEntity
  8
Defpoints
 62
     0
100
AcDbPoint
 10
53.25
 20
96.51999999999998
 30
0.0
  0
POINT
  5
9AC
330
9A2
100
AcDbEntity
  8
Defpoints
 62
     0
100
AcDbPoint
 10
0.0
 20
96.51999999999998
 30
0.0
  0
POINT
  5
9AD
330
9A2
100
AcDbEntity
  8
Defpoints
 62
     0
100
AcDbPoint
 10
0.0
 20
81.0
 30
0.0
  0
ENDBLK
  5
9A4
330
9A2
100
AcDbEntity
  8
0
100
AcDbBlockEnd
  0
BLOCK
  5
9AF
330
9AE
100
AcDbEntity
  8
0
100
AcDbBlockBegin
  2
*D32
 70
     1
 10
0.0
 20
0.0
 30
0.0
  3
*D32
  1
*D32
  0
LINE
  5
9B1
330
9AE
100
AcDbEntity
  8
BEMASSUNG
 62
     0
370
    -2
100
AcDbLine
 10
31.66
 20
101.485
 30
0.0
 11
31.66
 21
109.25
 31
0.0
  0
LINE
  5
9B2
330
9AE
100
AcDbEntity
  8
BEMASSUNG
 62
     0
370
    -2
100
AcDbLine
 10
82.46000000000001
 20
101.485
 30
0.0
 11
82.46000000000001
 21
109.25
 31
0.0
  0
LINE
  5
9B3
330
9AE
100
AcDbEntity
  8
BEMASSUNG
 62
     0
370
    -2
100
AcDbLine
 10
34.16
 20
108.0
 30
0.0
 11
79.96000000000001
 21
108.0
 31
0.0
  0
SOLID
  5
9B4
330
9AE
100
AcDbEntity
  8
BEMASSUNG
 62
     0
100
AcDbTrace
 10
34.16
 20
108.4166666666667
 30
0.0
 11
34.16
 21
107.5833333333333
 31
0.0
 12
31.66
 22
108.0
 32
0.0
 13
31.66
 23
108.0
 33
0.0
  0
SOLID
  5
9B5
330
9AE
100
AcDbEntity
  8
BEMASSUNG
 62
     0
100
AcDbTrace
 10
79.96000000000001
 20
107.5833333333333
 30
0.0
 11
79.96000000000001
 21
108.4166666666667
 31
0.0
 12
82.46000000000001
 22
108.0
 32
0.0
 13
82.46000000000001
 23
108.0
 33
0.0
  0
MTEXT
  5
9B6
330
9AE
100
AcDbEntity
  8
BEMASSUNG
 62
     0
100
AcDbMText
 10
57.06
 20
109.875
 30
0.0
 40
2.5
 41
0.0
 46
0.0
 71
     5
 72
     1
  1
\A1;50.8
  7
QCADDimTextStyle
 73
     1
 44
1.0
  0
POINT
  5
9B7
330
9AE
100
AcDbEntity
  8
Defpoints
 62
     0
100
AcDbPoint
 10
31.66
 20
100.86
 30
0.0
  0
POINT
  5
9B8
330
9AE
100
AcDbEntity
  8
Defpoints
 62
     0
100
AcDbPoint
 10
82.46000000000001
 20
100.86
 30
0.0
  0
POINT
  5
9B9
330
9AE
100
AcDbEntity
  8
Defpoints
 62
     0
100
AcDbPoint
 10
82.46000000000001
 20
108.0
 30
0.0
  0
ENDBLK
  5
9B0
330
9AE
100
AcDbEntity
  8
0
100
AcDbBlockEnd
  0
ENDSEC
  0
SECTION
  2
ENTITIES
  0
LINE
  5
1DD
330
77C
100
AcDbEntity
  8
Dimension
100
AcDbLine
 10
0.0
 20
0.0
 30
0.0
 11
424.0
 21
0.0
 31
0.0
  0
LINE
  5
1DE
330
77C
100
AcDbEntity
  8
Dimension
100
AcDbLine
 10
0.0
 20
0.0
 30
0.0
 11
0.0
 21
130.5
 31
0.0
  0
LINE
  5
1DF
330
77C
100
AcDbEntity
  8
Dimension
100
AcDbLine
 10
0.0
 20
130.5
 30
0.0
 11
424.0
 21
130.5
 31
0.0
  0
LINE
  5
1E0
330
77C
100
AcDbEntity
  8
Dimension
100
AcDbLine
 10
424.0
 20
130.5
 30
0.0
 11
424.0
 21
0.0
 31
0.0
  0
MTEXT
  5
1E1
330
77C
100
AcDbEntity
  8
INFO
100
AcDbMText
 10
0.0
 20
-3.0
 30
0.0
 40
3.0
 41
0.0
 46
0.0
 71
     1
 72
     1
  1
Material: AlMg3 t=2mm
  7
textstyle15
 73
     1
 44
1.0
  0
CIRCLE
  5
1E2
330
77C
100
AcDbEntity
  8
Cutout
100
AcDbCircle
 10
31.66
 20
98.69
 30
0.0
 40
5.85
  0
CIRCLE
  5
1E3
330
77C
100
AcDbEntity
  8
Cutout
100
AcDbCircle
 10
53.24999999999999
 20
98.69
 30
0.0
 40
5.85
  0
CIRCLE
  5
1E4
330
77C
100
AcDbEntity
  8
Cutout
100
AcDbCircle
 10
82.46000000000001
 20
98.69
 30
0.0
 40
5.85
  0
CIRCLE
  5
1E5
330
77C
100
AcDbEntity
  8
Cutout
100
AcDbCircle
 10
104.05
 20
98.69000000000001
 30
0.0
 40
5.85
  0
CIRCLE
  5
1E6
330
77C
100
AcDbEntity
  8
Cutout
100
AcDbCircle
 10
133.26
 20
98.69
 30
0.0
 40
5.85
  0
CIRCLE
  5
1E7
330
77C
100
AcDbEntity
  8
Cutout
100
AcDbCircle
 10
154.85
 20
98.69
 30
0.0
 40
5.85
  0
CIRCLE
  5
1E8
330
77C
100
AcDbEntity
  8
Cutout
100
AcDbCircle
 10
184.06
 20
98.69
 30
0.0
 40
5.85
  0
CIRCLE
  5
1E9
330
77C
100
AcDbEntity
  8
Cutout
100
AcDbCircle
 10
205.65
 20
98.69
 30
0.0
 40
5.85
  0
CIRCLE
  5
1EA
330
77C
100
AcDbEntity
  8
Cutout
100
AcDbCircle
 10
234.86
 20
98.69
 30
0.0
 40
5.85
  0
CIRCLE
  5
1EB
330
77C
100
AcDbEntity
  8
Cutout
100
AcDbCircle
 10
256.45
 20
98.68999999999998
 30
0.0
 40
5.85
  0
CIRCLE
  5
1EC
330
77C
100
AcDbEntity
  8
Cutout
100
AcDbCircle
 10
285.66
 20
98.68999999999998
 30
0.0
 40
5.85
  0
CIRCLE
  5
1ED
330
77C
100
AcDbEntity
  8
Cutout
100
AcDbCircle
 10
307.25
 20
98.69
 30
0.0
 40
5.85
  0
CIRCLE
  5
1EE
330
77C
100
AcDbEntity
  8
Cutout
100
AcDbCircle
 10
336.46
 20
98.68999999999998
 30
0.0
 40
5.85
  0
CIRCLE
  5
1EF
330
77C
100
AcDbEntity
  8
Cutout
100
AcDbCircle
 10
358.05
 20
98.69
 30
0.0
 40
5.85
  0
CIRCLE
  5
1F0
330
77C
100
AcDbEntity
  8
Cutout
100
AcDbCircle
 10
407.58
 20
84.75
 30
0.0
 40
1.6
  0
CIRCLE
  5
1F1
330
77C
100
AcDbEntity
  8
Cutout
100
AcDbCircle
 10
407.58
 20
45.75
 30
0.0
 40
1.6
  0
LINE
  5
1F2
330
77C
100
AcDbEntity
  8
Cutout
100
AcDbLine
 10
395.83
 20
81.5
 30
0.0
 11
419.33
 21
81.5
 31
0.0
  0
LINE
  5
1F3
330
77C
100
AcDbEntity
  8
Cutout
100
AcDbLine
 10
421.83
 20
79.0
 30
0.0
 11
421.83
 21
51.5
 31
0.0
  0
LINE
  5
1F4
330
77C
100
AcDbEntity
  8
Cutout
100
AcDbLine
 10
419.33
 20
49.0
 30
0.0
 11
395.83
 21
49.0
 31
0.0
  0
LINE
  5
1F5
330
77C
100
AcDbEntity
  8
Cutout
100
AcDbLine
 10
393.33
 20
51.5
 30
0.0
 11
393.33
 21
79.0
 31
0.0
  0
ARC
  5
1F6
330
77C
100
AcDbEntity
  8
Cutout
100
AcDbCircle
 10
395.83
 20
79.0
 30
0.0
 40
2.5
100
AcDbArc
 50
90.0
 51
180.0
  0
ARC
  5
1F7
330
77C
100
AcDbEntity
  8
Cutout
100
AcDbCircle
 10
419.33
 20
79.0
 30
0.0
 40
2.5
100
AcDbArc
 50
0.0
 51
90.0
  0
ARC
  5
1F8
330
77C
100
AcDbEntity
  8
Cutout
100
AcDbCircle
 10
419.33
 20
51.5
 30
0.0
 40
2.5
100
AcDbArc
 50
270.0
 51
0.0
  0
ARC
  5
1F9
330
77C
100
AcDbEntity
  8
Cutout
100
AcDbCircle
 10
395.83
 20
51.5
 30
0.0
 40
2.5
100
AcDbArc
 50
180.0
 51
270.0
  0
DIMENSION
  5
1FC
330
77C
100
AcDbEntity
  8
BEMASSUNG
100
AcDbDimension
280
     0
  2
*D15
 10
395.83
 20
51.50000000000016
 30
0.0
 11
390.0
 21
42.0
 31
0.0
 70
   164
 71
     5
 42
2.500000242091134
 73
     0
 74
     0
 75
     0
  3
QCADDimStyle
100
AcDbRadialDimension
 15
394.113014
 25
49.68287031660939
 35
0.0
 40
0.0
1001
ACAD
1000
DSTYLE
1002
{
1070
   279
1070
     2
1070
    41
1040
2.5
1070
    79
1070
     2
1070
   176
1070
     0
1070
   177
1070
     0
1070
   178
1070
     0
1070
    44
1040
1.25
1070
    42
1040
0.625
1070
   147
1040
0.625
1070
   140
1040
2.5
1070
    78
1070
     8
1002
}
  0
LINE
  5
1FD
330
77C
100
AcDbEntity
  8
Origins
  6
CENTERLINE
100
AcDbLine
 10
409.75
 20
45.75
 30
0.0
 11
405.41
 21
45.75
 31
0.0
  0
LINE
  5
1FE
330
77C
100
AcDbEntity
  8
Origins
  6
CENTERLINE
100
AcDbLine
 10
407.58
 20
43.57999999999998
 30
0.0
 11
407.58
 21
47.92000000000002
 31
0.0
  0
LINE
  5
1FF
330
77C
100
AcDbEntity
  8
Origins
  6
CENTERLINE
100
AcDbLine
 10
409.75
 20
84.75
 30
0.0
 11
405.41
 21
84.75
 31
0.0
  0
LINE
  5
200
330
77C
100
AcDbEntity
  8
Origins
  6
CENTERLINE
100
AcDbLine
 10
407.58
 20
82.57999999999998
 30
0.0
 11
407.58
 21
86.92000000000002
 31
0.0
  0
LINE
  5
201
330
77C
100
AcDbEntity
  8
Origins
  6
CENTERLINE
100
AcDbLine
 10
9.669999999999998
 20
4.05
 30
0.0
 11
4.18
 21
4.050000000000001
 31
0.0
  0
LINE
  5
202
330
77C
100
AcDbEntity
  8
Origins
  6
CENTERLINE
100
AcDbLine
 10
419.82
 20
126.45
 30
0.0
 11
414.33
 21
126.45
 31
0.0
  0
LINE
  5
203
330
77C
100
AcDbEntity
  8
Origins
  6
CENTERLINE
100
AcDbLine
 10
419.82
 20
4.05
 30
0.0
 11
414.33
 21
4.050000000000001
 31
0.0
  0
LINE
  5
204
330
77C
100
AcDbEntity
  8
Origins
  6
CENTERLINE
100
AcDbLine
 10
9.669999999999998
 20
126.45
 30
0.0
 11
4.18
 21
126.45
 31
0.0
  0
LINE
  5
205
330
77C
100
AcDbEntity
  8
Origins
  6
CENTERLINE
100
AcDbLine
 10
6.925
 20
1.879999999999984
 30
0.0
 11
6.925
 21
6.220000000000016
 31
0.0
  0
LINE
  5
206
330
77C
100
AcDbEntity
  8
Origins
  6
CENTERLINE
100
AcDbLine
 10
417.075
 20
124.28
 30
0.0
 11
417.075
 21
128.62
 31
0.0
  0
LINE
  5
207
330
77C
100
AcDbEntity
  8
Origins
  6
CENTERLINE
100
AcDbLine
 10
417.075
 20
1.879999999999984
 30
0.0
 11
417.075
 21
6.220000000000016
 31
0.0
  0
LINE
  5
208
330
77C
100
AcDbEntity
  8
Origins
  6
CENTERLINE
100
AcDbLine
 10
6.925
 20
124.28
 30
0.0
 11
6.925
 21
128.62
 31
0.0
  0
LINE
  5
209
330
77C
100
AcDbEntity
  8
Origins
  6
CENTERLINE
100
AcDbLine
 10
33.83
 20
98.69
 30
0.0
 11
29.49
 21
98.69
 31
0.0
  0
LINE
  5
20A
330
77C
100
AcDbEntity
  8
Origins
  6
CENTERLINE
100
AcDbLine
 10
31.66
 20
96.51999999999998
 30
0.0
 11
31.66
 21
100.86
 31
0.0
  0
LINE
  5
20B
330
77C
100
AcDbEntity
  8
Origins
  6
CENTERLINE
100
AcDbLine
 10
55.42
 20
98.69
 30
0.0
 11
51.08
 21
98.69
 31
0.0
  0
LINE
  5
20C
330
77C
100
AcDbEntity
  8
Origins
  6
CENTERLINE
100
AcDbLine
 10
53.25
 20
96.51999999999998
 30
0.0
 11
53.25
 21
100.86
 31
0.0
  0
LINE
  5
20D
330
77C
100
AcDbEntity
  8
Origins
  6
CENTERLINE
100
AcDbLine
 10
84.63
 20
98.69
 30
0.0
 11
80.28999999999999
 21
98.69
 31
0.0
  0
LINE
  5
20E
330
77C
100
AcDbEntity
  8
Origins
  6
CENTERLINE
100
AcDbLine
 10
82.46000000000001
 20
96.51999999999998
 30
0.0
 11
82.46000000000001
 21
100.86
 31
0.0
  0
LINE
  5
20F
330
77C
100
AcDbEntity
  8
Origins
  6
CENTERLINE
100
AcDbLine
 10
106.22
 20
98.69
 30
0.0
 11
101.88
 21
98.69
 31
0.0
  0
LINE
  5
210
330
77C
100
AcDbEntity
  8
Origins
  6
CENTERLINE
100
AcDbLine
 10
104.05
 20
96.51999999999998
 30
0.0
 11
104.05
 21
100.86
 31
0.0
  0
LINE
  5
211
330
77C
100
AcDbEntity
  8
Origins
  6
CENTERLINE
100
AcDbLine
 10
135.43
 20
98.69
 30
0.0
 11
131.09
 21
98.69
 31
0.0
  0
LINE
  5
212
330
77C
100
AcDbEntity
  8
Origins
  6
CENTERLINE
100
AcDbLine
 10
133.26
 20
96.51999999999998
 30
0.0
 11
133.26
 21
100.86
 31
0.0
  0
LINE
  5
213
330
77C
100
AcDbEntity
  8
Origins
  6
CENTERLINE
100
AcDbLine
 10
157.02
 20
98.69
 30
0.0
 11
152.68
 21
98.69
 31
0.0
  0
LINE
  5
214
330
77C
100
AcDbEntity
  8
Origins
  6
CENTERLINE
100
AcDbLine
 10
154.85
 20
96.51999999999998
 30
0.0
 11
154.85
 21
100.86
 31
0.0
  0
LINE
  5
215
330
77C
100
AcDbEntity
  8
Origins
  6
CENTERLINE
100
AcDbLine
 10
186.23
 20
98.69
 30
0.0
 11
181.89
 21
98.69
 31
0.0
  0
LINE
  5
216
330
77C
100
AcDbEntity
  8
Origins
  6
CENTERLINE
100
AcDbLine
 10
184.06
 20
96.51999999999998
 30
0.0
 11
184.06
 21
100.86
 31
0.0
  0
LINE
  5
217
330
77C
100
AcDbEntity
  8
Origins
  6
CENTERLINE
100
AcDbLine
 10
207.82
 20
98.69
 30
0.0
 11
203.48
 21
98.69
 31
0.0
  0
LINE
  5
218
330
77C
100
AcDbEntity
  8
Origins
  6
CENTERLINE
100
AcDbLine
 10
205.65
 20
96.51999999999998
 30
0.0
 11
205.65
 21
100.86
 31
0.0
  0
LINE
  5
219
330
77C
100
AcDbEntity
  8
Origins
  6
CENTERLINE
100
AcDbLine
 10
237.03
 20
98.69
 30
0.0
 11
232.69
 21
98.69
 31
0.0
  0
LINE
  5
21A
330
77C
100
AcDbEntity
  8
Origins
  6
CENTERLINE
100
AcDbLine
 10
234.86
 20
96.51999999999998
 30
0.0
 11
234.86
 21
100.86
 31
0.0
  0
LINE
  5
21B
330
77C
100
AcDbEntity
  8
Origins
  6
CENTERLINE
100
AcDbLine
 10
258.62
 20
98.69
 30
0.0
 11
254.28
 21
98.69
 31
0.0
  0
LINE
  5
21C
330
77C
100
AcDbEntity
  8
Origins
  6
CENTERLINE
100
AcDbLine
 10
256.45
 20
96.51999999999998
 30
0.0
 11
256.45
 21
100.86
 31
0.0
  0
LINE
  5
21D
330
77C
100
AcDbEntity
  8
Origins
  6
CENTERLINE
100
AcDbLine
 10
287.83
 20
98.69
 30
0.0
 11
283.49
 21
98.69
 31
0.0
  0
LINE
  5
21E
330
77C
100
AcDbEntity
  8
Origins
  6
CENTERLINE
100
AcDbLine
 10
285.66
 20
96.51999999999998
 30
0.0
 11
285.66
 21
100.86
 31
0.0
  0
LINE
  5
21F
330
77C
100
AcDbEntity
  8
Origins
  6
CENTERLINE
100
AcDbLine
 10
309.42
 20
98.69
 30
0.0
 11
305.08
 21
98.69
 31
0.0
  0
LINE
  5
220
330
77C
100
AcDbEntity
  8
Origins
  6
CENTERLINE
100
AcDbLine
 10
307.25
 20
96.51999999999998
 30
0.0
 11
307.25
 21
100.86
 31
0.0
  0
LINE
  5
221
330
77C
100
AcDbEntity
  8
Origins
  6
CENTERLINE
100
AcDbLine
 10
338.63
 20
98.69
 30
0.0
 11
334.29
 21
98.69
 31
0.0
  0
LINE
  5
222
330
77C
100
AcDbEntity
  8
Origins
  6
CENTERLINE
100
AcDbLine
 10
336.46
 20
96.51999999999998
 30
0.0
 11
336.46
 21
100.86
 31
0.0
  0
LINE
  5
223
330
77C
100
AcDbEntity
  8
Origins
  6
CENTERLINE
100
AcDbLine
 10
360.22
 20
98.69
 30
0.0
 11
355.88
 21
98.69
 31
0.0
  0
LINE
  5
224
330
77C
100
AcDbEntity
  8
Origins
  6
CENTERLINE
100
AcDbLine
 10
358.05
 20
96.51999999999998
 30
0.0
 11
358.05
 21
100.86
 31
0.0
  0
LINE
  5
225
330
77C
100
AcDbEntity
  8
Origins
  6
CENTERLINE
100
AcDbLine
 10
407.58
 20
63.07999999999998
 30
0.0
 11
407.58
 21
67.42000000000002
 31
0.0
  0
LINE
  5
226
330
77C
100
AcDbEntity
  8
Origins
  6
CENTERLINE
100
AcDbLine
 10
405.41
 20
65.25
 30
0.0
 11
409.75
 21
65.25
 31
0.0
  0
DIMENSION
  5
32E
330
77C
100
AcDbEntity
  8
BEMASSUNG
100
AcDbDimension
280
     0
  2
*D16
 10
408.9643681083095
 20
83.94779993723786
 30
0.0
 11
412.5
 21
84.5
 31
0.0
 70
   163
 71
     5
 42
3.200000000000006
 73
     0
 74
     0
 75
     0
  3
QCADDimStyle
100
AcDbDiametricDimension
 15
406.1956318916905
 25
85.55220006276214
 35
0.0
 40
0.0
1001
ACAD
1000
DSTYLE
1002
{
1070
   279
1070
     2
1070
    41
1040
2.5
1070
    79
1070
     2
1070
   176
1070
     0
1070
   177
1070
     0
1070
   178
1070
     0
1070
    44
1040
1.25
1070
    42
1040
0.625
1070
   147
1040
0.625
1070
   140
1040
2.5
1070
    78
1070
     8
1002
}
  0
DIMENSION
  5
331
330
77C
100
AcDbEntity
  8
BEMASSUNG
100
AcDbDimension
280
     0
  2
*D17
 10
424.0
 20
134.5
 30
0.0
 11
212.0
 21
136.375
 31
0.0
 70
    32
 71
     5
 42
424.0
 73
     0
 74
     0
 75
     0
  3
QCADDimStyle
100
AcDbAlignedDimension
 13
0.0
 23
130.5
 33
0.0
 14
424.0
 24
130.5
 34
0.0
100
AcDbRotatedDimension
1001
ACAD
1000
DSTYLE
1002
{
1070
   279
1070
     2
1070
    41
1040
2.5
1070
    79
1070
     2
1070
   176
1070
     0
1070
   177
1070
     0
1070
   178
1070
     0
1070
    44
1040
1.25
1070
    42
1040
0.625
1070
   147
1040
0.625
1070
   140
1040
2.5
1070
    78
1070
     8
1002
}
  0
LINE
  5
332
330
77C
100
AcDbEntity
  8
Cutout
100
AcDbLine
 10
417.65
 20
128.05
 30
0.0
 11
416.5
 21
128.05
 31
0.0
  0
LINE
  5
333
330
77C
100
AcDbEntity
  8
Cutout
100
AcDbLine
 10
417.65
 20
5.65
 30
0.0
 11
416.5
 21
5.65
 31
0.0
  0
LINE
  5
334
330
77C
100
AcDbEntity
  8
Cutout
100
AcDbLine
 10
7.500000000000001
 20
128.05
 30
0.0
 11
6.350000000000001
 21
128.05
 31
0.0
  0
LINE
  5
335
330
77C
100
AcDbEntity
  8
Cutout
100
AcDbLine
 10
7.500000000000001
 20
5.65
 30
0.0
 11
6.350000000000001
 21
5.65
 31
0.0
  0
LINE
  5
336
330
77C
100
AcDbEntity
  8
Cutout
100
AcDbLine
 10
416.5
 20
124.85
 30
0.0
 11
417.65
 21
124.85
 31
0.0
  0
LINE
  5
337
330
77C
100
AcDbEntity
  8
Cutout
100
AcDbLine
 10
416.5
 20
2.450000000000001
 30
0.0
 11
417.65
 21
2.450000000000001
 31
0.0
  0
LINE
  5
338
330
77C
100
AcDbEntity
  8
Cutout
100
AcDbLine
 10
6.350000000000001
 20
124.85
 30
0.0
 11
7.500000000000001
 21
124.85
 31
0.0
  0
LINE
  5
339
330
77C
100
AcDbEntity
  8
Cutout
100
AcDbLine
 10
6.350000000000001
 20
2.450000000000001
 30
0.0
 11
7.500000000000001
 21
2.450000000000001
 31
0.0
  0
ARC
  5
33A
330
77C
100
AcDbEntity
  8
Cutout
100
AcDbCircle
 10
416.5
 20
126.45
 30
0.0
 40
1.6
100
AcDbArc
 50
90.0
 51
270.0
  0
ARC
  5
33B
330
77C
100
AcDbEntity
  8
Cutout
100
AcDbCircle
 10
416.5
 20
4.050000000000001
 30
0.0
 40
1.6
100
AcDbArc
 50
90.0
 51
270.0
  0
ARC
  5
33C
330
77C
100
AcDbEntity
  8
Cutout
100
AcDbCircle
 10
6.350000000000001
 20
126.45
 30
0.0
 40
1.6
100
AcDbArc
 50
90.0
 51
270.0
  0
ARC
  5
33D
330
77C
100
AcDbEntity
  8
Cutout
100
AcDbCircle
 10
6.350000000000001
 20
4.050000000000001
 30
0.0
 40
1.6
100
AcDbArc
 50
90.0
 51
270.0
  0
ARC
  5
33E
330
77C
100
AcDbEntity
  8
Cutout
100
AcDbCircle
 10
417.65
 20
126.45
 30
0.0
 40
1.6
100
AcDbArc
 50
270.0
 51
90.0
  0
ARC
  5
33F
330
77C
100
AcDbEntity
  8
Cutout
100
AcDbCircle
 10
417.65
 20
4.050000000000001
 30
0.0
 40
1.6
100
AcDbArc
 50
270.0
 51
90.0
  0
ARC
  5
340
330
77C
100
AcDbEntity
  8
Cutout
100
AcDbCircle
 10
7.500000000000001
 20
126.45
 30
0.0
 40
1.6
100
AcDbArc
 50
270.0
 51
90.0
  0
ARC
  5
341
330
77C
100
AcDbEntity
  8
Cutout
100
AcDbCircle
 10
7.500000000000001
 20
4.050000000000001
 30
0.0
 40
1.6
100
AcDbArc
 50
270.0
 51
90.0
  0
DIMENSION
  5
345
330
77C
100
AcDbEntity
  8
BEMASSUNG
100
AcDbDimension
280
     0
  2
*D18
 10
-3.999999999999981
 20
98.69000000000001
 30
0.0
 11
-5.874999999999984
 21
49.34500000000001
 31
0.0
 70
    32
 71
     5
 42
98.69000000000001
 73
     0
 74
     0
 75
     0
  3
QCADDimStyle
100
AcDbAlignedDimension
 13
0.0
 23
0.0
 33
0.0
 14
31.66
 24
98.69000000000001
 34
0.0
 50
90.0
100
AcDbRotatedDimension
1001
ACAD
1000
DSTYLE
1002
{
1070
   279
1070
     2
1070
    41
1040
2.5
1070
    79
1070
     2
1070
   176
1070
     0
1070
   177
1070
     0
1070
   178
1070
     0
1070
    44
1040
1.25
1070
    42
1040
0.625
1070
   147
1040
0.625
1070
   140
1040
2.5
1070
    78
1070
     8
1002
}
  0
DIMENSION
  5
346
330
77C
100
AcDbEntity
  8
BEMASSUNG
100
AcDbDimension
280
     0
  2
*D19
 10
35.79108977361646
 20
94.54794769681484
 30
0.0
 11
34.287581
 21
100.014067
 31
0.0
 70
   163
 71
     5
 42
11.7
 73
     0
 74
     0
 75
     0
  3
QCADDimStyle
100
AcDbDiametricDimension
 15
27.52891022638354
 25
102.8320523031852
 35
0.0
 40
0.0
1001
ACAD
1000
DSTYLE
1002
{
1070
   279
1070
     2
1070
    41
1040
2.5
1070
    79
1070
     2
1070
   176
1070
     0
1070
   177
1070
     0
1070
   178
1070
     0
1070
    44
1040
1.25
1070
    42
1040
0.625
1070
   147
1040
0.625
1070
   140
1040
2.5
1070
    78
1070
     8
1002
}
  0
DIMENSION
  5
347
330
77C
100
AcDbEntity
  8
BEMASSUNG
100
AcDbDimension
280
     0
  2
*D20
 10
17.0
 20
-0.0000000000000005
 30
0.0
 11
20.4375
 21
2.024999999999999
 31
0.0
 70
    32
 71
     5
 42
4.05
 73
     0
 74
     0
 75
     0
  3
QCADDimStyle
100
AcDbAlignedDimension
 13
9.100000000000001
 23
4.05
 33
0.0
 14
9.100000000000001
 24
0.0
 34
0.0
 50
90.0
100
AcDbRotatedDimension
1001
ACAD
1000
DSTYLE
1002
{
1070
   279
1070
     2
1070
    41
1040
2.5
1070
    79
1070
     2
1070
   176
1070
     0
1070
   177
1070
     0
1070
   178
1070
     0
1070
    44
1040
1.25
1070
    42
1040
0.625
1070
   147
1040
0.625
1070
   140
1040
2.5
1070
    78
1070
     8
1002
}
  0
DIMENSION
  5
348
330
77C
100
AcDbEntity
  8
BEMASSUNG
100
AcDbDimension
280
     0
  2
*D21
 10
0.0
 20
12.0
 30
0.0
 11
3.4625
 21
15.4375
 31
0.0
 70
    32
 71
     5
 42
6.925
 73
     0
 74
     0
 75
     0
  3
QCADDimStyle
100
AcDbAlignedDimension
 13
6.925
 23
6.220000000000016
 33
0.0
 14
0.0
 24
6.220000000000016
 34
0.0
100
AcDbRotatedDimension
1001
ACAD
1000
DSTYLE
1002
{
1070
   279
1070
     2
1070
    41
1040
2.5
1070
    79
1070
     2
1070
   176
1070
     0
1070
   177
1070
     0
1070
   178
1070
     0
1070
    44
1040
1.25
1070
    42
1040
0.625
1070
   147
1040
0.625
1070
   140
1040
2.5
1070
    78
1070
     8
1002
}
  0
DIMENSION
  5
34A
330
77C
100
AcDbEntity
  8
BEMASSUNG
100
AcDbDimension
280
     0
  2
*D22
 10
-2.0
 20
124.85
 30
0.0
 11
-5.4375
 21
126.45
 31
0.0
 70
    32
 71
     5
 42
3.200000000000017
 73
     0
 74
     0
 75
     0
  3
QCADDimStyle
100
AcDbAlignedDimension
 13
6.924999999999999
 23
128.05
 33
0.0
 14
6.924999999999999
 24
124.85
 34
0.0
 50
90.0
100
AcDbRotatedDimension
1001
ACAD
1000
DSTYLE
1002
{
1070
   279
1070
     2
1070
    41
1040
2.5
1070
    79
1070
     2
1070
   176
1070
     0
1070
   177
1070
     0
1070
   178
1070
     0
1070
    44
1040
1.25
1070
    42
1040
0.625
1070
   147
1040
0.625
1070
   140
1040
2.5
1070
    78
1070
     8
1002
}
  0
DIMENSION
  5
34B
330
77C
100
AcDbEntity
  8
BEMASSUNG
100
AcDbDimension
280
     0
  2
*D23
 10
430.0
 20
65.25
 30
0.0
 11
428.125
 21
32.625
 31
0.0
 70
    32
 71
     5
 42
65.25
 73
     0
 74
     0
 75
     0
  3
QCADDimStyle
100
AcDbAlignedDimension
 13
424.0
 23
0.0
 33
0.0
 14
407.58
 24
65.25
 34
0.0
 50
90.0
100
AcDbRotatedDimension
1001
ACAD
1000
DSTYLE
1002
{
1070
   279
1070
     2
1070
    41
1040
2.5
1070
    79
1070
     2
1070
   176
1070
     0
1070
   177
1070
     0
1070
   178
1070
     0
1070
    44
1040
1.25
1070
    42
1040
0.625
1070
   147
1040
0.625
1070
   140
1040
2.5
1070
    78
1070
     8
1002
}
  0
DIMENSION
  5
34D
330
77C
100
AcDbEntity
  8
BEMASSUNG
100
AcDbDimension
280
     0
  2
*D24
 10
442.0
 20
130.5
 30
0.0
 11
440.125
 21
65.25
 31
0.0
 70
    32
 71
     5
 42
130.5
 73
     0
 74
     0
 75
     0
  3
QCADDimStyle
100
AcDbAlignedDimension
 13
424.0
 23
0.0
 33
0.0
 14
424.0
 24
130.5
 34
0.0
 50
90.0
100
AcDbRotatedDimension
1001
ACAD
1000
DSTYLE
1002
{
1070
   279
1070
     2
1070
    41
1040
2.5
1070
    79
1070
     2
1070
   176
1070
     0
1070
   177
1070
     0
1070
   178
1070
     0
1070
    44
1040
1.25
1070
    42
1040
0.625
1070
   147
1040
0.625
1070
   140
1040
2.5
1070
    78
1070
     8
1002
}
  0
DIMENSION
  5
34E
330
77C
100
AcDbEntity
  8
BEMASSUNG
100
AcDbDimension
280
     0
  2
*D25
 10
421.83
 20
56.0
 30
0.0
 11
407.58
 21
57.875
 31
0.0
 70
    32
 71
     5
 42
28.5
 73
     0
 74
     0
 75
     0
  3
QCADDimStyle
100
AcDbAlignedDimension
 13
393.33
 23
65.25
 33
0.0
 14
421.83
 24
65.25000000000001
 34
0.0
100
AcDbRotatedDimension
1001
ACAD
1000
DSTYLE
1002
{
1070
   279
1070
     2
1070
    41
1040
2.5
1070
    79
1070
     2
1070
   176
1070
     0
1070
   177
1070
     0
1070
   178
1070
     0
1070
    44
1040
1.25
1070
    42
1040
0.625
1070
   147
1040
0.625
1070
   140
1040
2.5
1070
    78
1070
     8
1002
}
  0
DIMENSION
  5
351
330
77C
100
AcDbEntity
  8
BEMASSUNG
100
AcDbDimension
280
     0
  2
*D26
 10
390.0
 20
81.5
 30
0.0
 11
388.125
 21
65.25
 31
0.0
 70
    32
 71
     5
 42
32.5
 73
     0
 74
     0
 75
     0
  3
QCADDimStyle
100
AcDbAlignedDimension
 13
395.83
 23
49.0
 33
0.0
 14
395.83
 24
81.5
 34
0.0
 50
90.0
100
AcDbRotatedDimension
1001
ACAD
1000
DSTYLE
1002
{
1070
   279
1070
     2
1070
    41
1040
2.5
1070
    79
1070
     2
1070
   176
1070
     0
1070
   177
1070
     0
1070
   178
1070
     0
1070
    44
1040
1.25
1070
    42
1040
0.625
1070
   147
1040
0.625
1070
   140
1040
2.5
1070
    78
1070
     8
1002
}
  0
DIMENSION
  5
352
330
77C
100
AcDbEntity
  8
BEMASSUNG
100
AcDbDimension
280
     0
  2
*D27
 10
384.0
 20
84.75
 30
0.0
 11
382.125
 21
65.25
 31
0.0
 70
    32
 71
     5
 42
39.0
 73
     0
 74
     0
 75
     0
  3
QCADDimStyle
100
AcDbAlignedDimension
 13
407.58
 23
45.75
 33
0.0
 14
407.58
 24
84.75
 34
0.0
 50
90.0
100
AcDbRotatedDimension
1001
ACAD
1000
DSTYLE
1002
{
1070
   279
1070
     2
1070
    41
1040
2.5
1070
    79
1070
     2
1070
   176
1070
     0
1070
   177
1070
     0
1070
   178
1070
     0
1070
    44
1040
1.25
1070
    42
1040
0.625
1070
   147
1040
0.625
1070
   140
1040
2.5
1070
    78
1070
     8
1002
}
  0
DIMENSION
  5
353
330
77C
100
AcDbEntity
  8
BEMASSUNG
100
AcDbDimension
280
     0
  2
*D28
 10
9.100000000000001
 20
122.0
 30
0.0
 11
6.925000000000001
 21
116.0625
 31
0.0
 70
    32
 71
     5
 42
4.350000000000001
 73
     0
 74
     0
 75
     0
  3
QCADDimStyle
100
AcDbAlignedDimension
 13
4.75
 23
126.45
 33
0.0
 14
9.100000000000001
 24
126.45
 34
0.0
100
AcDbRotatedDimension
1001
ACAD
1000
DSTYLE
1002
{
1070
   279
1070
     2
1070
    41
1040
2.5
1070
    79
1070
     2
1070
   176
1070
     0
1070
   177
1070
     0
1070
   178
1070
     0
1070
    44
1040
1.25
1070
    42
1040
0.625
1070
   147
1040
0.625
1070
   140
1040
2.5
1070
    78
1070
     8
1002
}
  0
DIMENSION
  5
682
330
77C
100
AcDbEntity
  8
BEMASSUNG
100
AcDbDimension
280
     0
  2
*D29
 10
424.0
 20
68.0
 30
0.0
 11
415.79
 21
69.875
 31
0.0
 70
    32
 71
     5
 42
16.42000000000002
 73
     0
 74
     0
 75
     0
  3
QCADDimStyle
100
AcDbAlignedDimension
 13
407.58
 23
65.25
 33
0.0
 14
424.0
 24
65.25
 34
0.0
100
AcDbRotatedDimension
1001
ACAD
1000
DSTYLE
1002
{
1070
   279
1070
     2
1070
    41
1040
2.5
1070
    79
1070
     2
1070
   176
1070
     0
1070
   177
1070
     0
1070
   178
1070
     0
1070
    44
1040
1.25
1070
    42
1040
0.625
1070
   147
1040
0.625
1070
   140
1040
2.5
1070
    78
1070
     8
1002
}
  0
DIMENSION
  5
684
330
77C
100
AcDbEntity
  8
BEMASSUNG
100
AcDbDimension
280
     0
  2
*D30
 10
0.0
 20
90.0
 30
0.0
 11
15.83
 21
91.875
 31
0.0
 70
    32
 71
     5
 42
31.66
 73
     0
 74
     0
 75
     0
  3
QCADDimStyle
100
AcDbAlignedDimension
 13
31.66
 23
96.51999999999998
 33
0.0
 14
0.0
 24
96.51999999999998
 34
0.0
100
AcDbRotatedDimension
1001
ACAD
1000
DSTYLE
1002
{
1070
   279
1070
     2
1070
    41
1040
2.5
1070
    79
1070
     2
1070
   176
1070
     0
1070
   177
1070
     0
1070
   178
1070
     0
1070
    44
1040
1.25
1070
    42
1040
0.625
1070
   147
1040
0.625
1070
   140
1040
2.5
1070
    78
1070
     8
1002
}
  0
DIMENSION
  5
685
330
77C
100
AcDbEntity
  8
BEMASSUNG
100
AcDbDimension
280
     0
  2
*D31
 10
0.0
 20
81.0
 30
0.0
 11
26.625
 21
82.875
 31
0.0
 70
    32
 71
     5
 42
53.25
 73
     0
 74
     0
 75
     0
  3
QCADDimStyle
100
AcDbAlignedDimension
 13
53.25
 23
96.51999999999998
 33
0.0
 14
0.0
 24
96.51999999999998
 34
0.0
100
AcDbRotatedDimension
1001
ACAD
1000
DSTYLE
1002
{
1070
   279
1070
     2
1070
    41
1040
2.5
1070
    79
1070
     2
1070
   176
1070
     0
1070
   177
1070
     0
1070
   178
1070
     0
1070
    44
1040
1.25
1070
    42
1040
0.625
1070
   147
1040
0.625
1070
   140
1040
2.5
1070
    78
1070
     8
1002
}
  0
DIMENSION
  5
686
330
77C
100
AcDbEntity
  8
BEMASSUNG
100
AcDbDimension
280
     0
  2
*D32
 10
82.46000000000001
 20
108.0
 30
0.0
 11
57.06
 21
109.875
 31
0.0
 70
    32
 71
     5
 42
50.80000000000001
 73
     0
 74
     0
 75
     0
  3
QCADDimStyle
100
AcDbAlignedDimension
 13
31.66
 23
100.86
 33
0.0
 14
82.46000000000001
 24
100.86
 34
0.0
100
AcDbRotatedDimension
1001
ACAD
1000
DSTYLE
1002
{
1070
   279
1070
     2
1070
    41
1040
2.5
1070
    79
1070
     2
1070
   176
1070
     0
1070
   177
1070
     0
1070
   178
1070
     0
1070
    44
1040
1.25
1070
    42
1040
0.625
1070
   147
1040
0.625
1070
   140
1040
2.5
1070
    78
1070
     8
1002
}
  0
ENDSEC
  0
SECTION
  2
OBJECTS
  0
DICTIONARY
  5
76A
330
0
100
AcDbDictionary
281
     1
  3
ACAD_DETAILVIEWSTYLE
350
9C1
  3
ACAD_GROUP
350
76B
  3
ACAD_LAYOUT
350
777
  3
ACAD_MATERIAL
350
7A0
  3
ACAD_MLEADERSTYLE
350
7C8
  3
ACAD_MLINESTYLE
350
774
  3
ACAD_PLOTSETTINGS
350
776
  3
ACAD_PLOTSTYLENAME
350
76C
  3
ACAD_SCALELIST
350
7A4
  3
ACAD_SECTIONVIEWSTYLE
350
9C2
  3
ACAD_TABLESTYLE
350
7C6
  3
ACAD_VISUALSTYLE
350
787
  3
ACDB_RECOMPOSE_DATA
350
9BE
  3
AcDbVariableDictionary
350
9BA
  3
QCAD_OBJECTS
350
7CC
  0
SUN
  5
7CA
330
786
100
AcDbSun
 90
        1
290
     0
 63
     7
421
 16777215
 40
1.0
291
     1
 91
  2455826
 92
 54000000
292
     0
 70
     2
 71
   256
280
     1
  0
DICTIONARY
  5
9C1
102
{ACAD_REACTORS
330
76A
102
}
330
76A
100
AcDbDictionary
281
     1
  0
DICTIONARY
  5
76B
102
{ACAD_REACTORS
330
76A
102
}
330
76A
100
AcDbDictionary
281
     1
  0
DICTIONARY
  5
777
102
{ACAD_REACTORS
330
76A
102
}
330
76A
100
AcDbDictionary
281
     1
  3
Layout1
350
77B
  3
Layout2
350
783
  3
Model
350
77F
  0
DICTIONARY
  5
7A0
102
{ACAD_REACTORS
330
76A
102
}
330
76A
100
AcDbDictionary
281
     1
  3
ByBlock
350
7A2
  3
ByLayer
350
7A1
  3
Global
350
7A3
  0
DICTIONARY
  5
7C8
102
{ACAD_REACTORS
330
76A
102
}
330
76A
100
AcDbDictionary
281
     1
  3
Standard
350
7C9
  0
DICTIONARY
  5
774
102
{ACAD_REACTORS
330
76A
102
}
330
76A
100
AcDbDictionary
281
     1
  3
Standard
350
775
  0
DICTIONARY
  5
776
102
{ACAD_REACTORS
330
76A
102
}
330
76A
100
AcDbDictionary
281
     1
  0
ACDBDICTIONARYWDFLT
  5
76C
102
{ACAD_REACTORS
330
76A
102
}
330
76A
100
AcDbDictionary
281
     1
  3
Normal
350
76D
100
AcDbDictionaryWithDefault
340
76D
  0
DICTIONARY
  5
7A4
102
{ACAD_REACTORS
330
76A
102
}
330
76A
100
AcDbDictionary
281
     1
  3
A0
350
7A5
  3
A1
350
7A6
  3
A2
350
7A7
  3
A3
350
7A8
  3
A4
350
7A9
  3
A5
350
7AA
  3
A6
350
7AB
  3
A7
350
7AC
  3
A8
350
7AD
  3
A9
350
7AE
  3
B0
350
7AF
  3
B1
350
7B0
  3
B2
350
7B1
  3
B3
350
7B2
  3
B4
350
7B3
  3
B5
350
7B4
  3
B6
350
7B5
  3
B7
350
7B6
  3
B8
350
7B7
  3
B9
350
7B8
  3
C0
350
7B9
  3
C1
350
7BA
  3
C2
350
7BB
  3
C3
350
7BC
  3
C4
350
7BD
  3
C5
350
7BE
  3
C6
350
7BF
  3
C7
350
7C0
  3
C8
350
7C1
  3
C9
350
7C2
  3
D0
350
7C3
  3
D1
350
7C4
  3
D2
350
7C5
  0
DICTIONARY
  5
9C2
102
{ACAD_REACTORS
330
76A
102
}
330
76A
100
AcDbDictionary
281
     1
  0
DICTIONARY
  5
7C6
102
{ACAD_REACTORS
330
76A
102
}
330
76A
100
AcDbDictionary
281
     1
  3
Standard
350
7C7
  0
DICTIONARY
  5
787
102
{ACAD_REACTORS
330
76A
102
}
330
76A
100
AcDbDictionary
281
     1
  3
2dWireframe
350
78C
  3
Basic
350
78F
  3
Brighten
350
793
  3
ColorChange
350
797
  3
Conceptual
350
791
  3
Dim
350
792
  3
EdgeColorOff
350
79A
  3
Facepattern
350
796
  3
Flat
350
788
  3
FlatWithEdges
350
789
  3
Gouraud
350
78A
  3
GouraudWithEdges
350
78B
  3
Hidden
350
78E
  3
JitterOff
350
798
  3
Linepattern
350
795
  3
OverhangOff
350
799
  3
Realistic
350
790
  3
Shaded
350
79F
  3
Shaded with edges
350
79E
  3
Shades of Gray
350
79B
  3
Sketchy
350
79C
  3
Thicken
350
794
  3
Wireframe
350
78D
  3
X-Ray
350
79D
  0
XRECORD
  5
9BE
102
{ACAD_REACTORS
330
76A
102
}
330
76A
100
AcDbXrecord
280
     1
 90
        1
330
7C7
  0
DICTIONARY
  5
9BA
102
{ACAD_REACTORS
330
76A
102
}
330
76A
100
AcDbDictionary
281
     1
  3
CANNOSCALE
350
9BB
  3
CMLEADERSTYLE
350
9C0
  3
CTABLESTYLE
350
9BF
  0
DICTIONARY
  5
7CC
102
{ACAD_REACTORS
330
76A
102
}
330
76A
100
AcDbDictionary
281
     1
  3
ColorSettings/BackgroundColor
350
7CE
  3
ColorSettings/ColorMode
350
7CF
  3
Grid/DisplayGrid00
350
7D0
  3
Grid/DisplayGrid01
350
7D1
  3
Grid/DisplayGrid02
350
7D2
  3
Grid/DisplayGrid03
350
7D3
  3
Grid/GridSpacingX00
350
7D4
  3
Grid/GridSpacingX01
350
7D5
  3
Grid/GridSpacingX02
350
7D6
  3
Grid/GridSpacingX03
350
7D7
  3
Grid/GridSpacingY00
350
7D8
  3
Grid/GridSpacingY01
350
7D9
  3
Grid/GridSpacingY02
350
7DA
  3
Grid/GridSpacingY03
350
7DB
  3
Grid/IsometricGrid00
350
7DC
  3
Grid/IsometricGrid01
350
7DD
  3
Grid/IsometricGrid02
350
7DE
  3
Grid/IsometricGrid03
350
7DF
  3
Grid/IsometricProjection00
350
7E0
  3
Grid/IsometricProjection01
350
7E1
  3
Grid/IsometricProjection02
350
7E2
  3
Grid/IsometricProjection03
350
7E3
  3
Grid/MetaGridSpacingX00
350
7E4
  3
Grid/MetaGridSpacingX01
350
7E5
  3
Grid/MetaGridSpacingX02
350
7E6
  3
Grid/MetaGridSpacingX03
350
7E7
  3
Grid/MetaGridSpacingY00
350
7E8
  3
Grid/MetaGridSpacingY01
350
7E9
  3
Grid/MetaGridSpacingY02
350
7EA
  3
Grid/MetaGridSpacingY03
350
7EB
  3
MultiPageSettings/Columns
350
7EC
  3
MultiPageSettings/GlueMarginsBottom
350
7ED
  3
MultiPageSettings/GlueMarginsLeft
350
7EE
  3
MultiPageSettings/GlueMarginsRight
350
7EF
  3
MultiPageSettings/GlueMarginsTop
350
7F0
  3
MultiPageSettings/PrintCropMarks
350
7F1
  3
MultiPageSettings/Rows
350
7F2
  3
PageSettings/OffsetX
350
7F3
  3
PageSettings/OffsetY
350
7F4
  3
PageSettings/PageOrientation
350
7F5
  3
PageSettings/PaperHeight
350
7F6
  3
PageSettings/PaperWidth
350
7F7
  3
PageSettings/Scale
350
7F8
  3
PageSettings/ShowPaperBorders
350
7F9
  3
QCADVersion
350
7FA
  3
UnitSettings/PaperUnit
350
7FB
  0
LAYOUT
  5
77B
102
{ACAD_REACTORS
330
777
102
}
330
777
100
AcDbPlotSettings
  1

  2
none_device
  4

  6

 40
0.0
 41
0.0
 42
0.0
 43
0.0
 44
0.0
 45
0.0
 46
0.0
 47
0.0
 48
0.0
 49
0.0
140
0.0
141
0.0
142
1.0
143
1.0
 70
   688
 72
     0
 73
     0
 74
     5
  7

 75
    16
 76
     0
 77
     2
 78
   300
147
1.0
148
0.0
149
0.0
100
AcDbLayout
  1
Layout1
 70
     1
 71
     1
 10
0.0
 20
0.0
 11
12.0
 21
9.0
 12
0.0
 22
0.0
 32
0.0
 14
1.000000000000000E+20
 24
1.000000000000000E+20
 34
1.000000000000000E+20
 15
-1.000000000000000E+20
 25
-1.000000000000000E+20
 35
-1.000000000000000E+20
146
0.0
 13
0.0
 23
0.0
 33
0.0
 16
1.0
 26
0.0
 36
0.0
 17
0.0
 27
1.0
 37
0.0
 76
     0
330
778
  0
LAYOUT
  5
783
102
{ACAD_REACTORS
330
777
102
}
330
777
100
AcDbPlotSettings
  1

  2
none_device
  4

  6

 40
0.0
 41
0.0
 42
0.0
 43
0.0
 44
0.0
 45
0.0
 46
0.0
 47
0.0
 48
0.0
 49
0.0
140
0.0
141
0.0
142
1.0
143
1.0
 70
   688
 72
     0
 73
     0
 74
     5
  7

 75
    16
 76
     0
 77
     2
 78
   300
147
1.0
148
0.0
149
0.0
100
AcDbLayout
  1
Layout2
 70
     1
 71
     2
 10
0.0
 20
0.0
 11
0.0
 21
0.0
 12
0.0
 22
0.0
 32
0.0
 14
0.0
 24
0.0
 34
0.0
 15
0.0
 25
0.0
 35
0.0
146
0.0
 13
0.0
 23
0.0
 33
0.0
 16
1.0
 26
0.0
 36
0.0
 17
0.0
 27
1.0
 37
0.0
 76
     0
330
780
  0
LAYOUT
  5
77F
102
{ACAD_REACTORS
330
777
102
}
330
777
100
AcDbPlotSettings
  1

  2
none_device
  4
Letter_(8.50_x_11.00_Inches)
  6

 40
6.35
 41
6.35
 42
6.35000508
 43
6.35000508
 44
215.9
 45
279.4
 46
0.0
 47
0.0
 48
0.0
 49
0.0
140
0.0
141
0.0
142
1.0
143
1.0
 70
  1712
 72
     0
 73
     0
 74
     0
  7

 75
     0
 76
     0
 77
     2
 78
   300
147
1.0
148
0.0
149
0.0
100
AcDbLayout
  1
Model
 70
     1
 71
     0
 10
0.0
 20
0.0
 11
12.0
 21
9.0
 12
0.0
 22
0.0
 32
0.0
 14
1.000000000000000E+20
 24
1.000000000000000E+20
 34
1.000000000000000E+20
 15
-1.000000000000000E+20
 25
-1.000000000000000E+20
 35
-1.000000000000000E+20
146
0.0
 13
0.0
 23
0.0
 33
0.0
 16
1.0
 26
0.0
 36
0.0
 17
0.0
 27
1.0
 37
0.0
 76
     0
330
77C
331
786
  0
MATERIAL
  5
7A2
102
{ACAD_REACTORS
330
7A0
102
}
330
7A0
100
AcDbMaterial
  1
ByBlock
 72
     1
 94
      127
  0
MATERIAL
  5
7A1
102
{ACAD_REACTORS
330
7A0
102
}
330
7A0
100
AcDbMaterial
  1
ByLayer
 72
     1
 94
      127
  0
MATERIAL
  5
7A3
102
{ACAD_REACTORS
330
7A0
102
}
330
7A0
100
AcDbMaterial
  1
Global
 72
     1
 94
      127
  0
MLEADERSTYLE
  5
7C9
102
{ACAD_REACTORS
330
7C8
102
}
330
7C8
100
AcDbMLeaderStyle
179
     2
170
     2
171
     1
172
     0
 90
        2
 40
0.0
 41
0.0
173
     1
 91
-1056964608
340
771
 92
       -2
290
     1
 42
0.09
291
     1
 43
0.36
  3
Standard
341
0
 44
0.18
300

342
76F
174
     1
178
     6
175
     1
176
     0
 93
-1056964608
 45
0.18
292
     0
297
     0
 46
0.18
343
0
 94
-1056964608
 47
1.0
 49
1.0
140
1.0
293
     1
141
0.0
294
     1
177
     0
142
1.0
295
     0
296
     0
143
0.125
271
     0
272
     9
273
     9
298
     0
  0
MLINESTYLE
  5
775
102
{ACAD_REACTORS
330
774
102
}
330
774
100
AcDbMlineStyle
  2
Standard
 70
     0
  3

 62
   256
 51
90.0
 52
90.0
 71
     2
 49
0.5
 62
   256
  6
BYLAYER
 49
-0.5
 62
   256
  6
BYLAYER
  0
ACDBPLACEHOLDER
  5
76D
102
{ACAD_REACTORS
330
76C
102
}
330
76C
  0
SCALE
  5
7A5
102
{ACAD_REACTORS
330
7A4
102
}
330
7A4
100
AcDbScale
 70
     0
300
1:1
140
1.0
141
1.0
290
     1
  0
SCALE
  5
7A6
102
{ACAD_REACTORS
330
7A4
102
}
330
7A4
100
AcDbScale
 70
     0
300
1:2
140
1.0
141
2.0
290
     0
  0
SCALE
  5
7A7
102
{ACAD_REACTORS
330
7A4
102
}
330
7A4
100
AcDbScale
 70
     0
300
1:4
140
1.0
141
4.0
290
     0
  0
SCALE
  5
7A8
102
{ACAD_REACTORS
330
7A4
102
}
330
7A4
100
AcDbScale
 70
     0
300
1:5
140
1.0
141
5.0
290
     0
  0
SCALE
  5
7A9
102
{ACAD_REACTORS
330
7A4
102
}
330
7A4
100
AcDbScale
 70
     0
300
1:8
140
1.0
141
8.0
290
     0
  0
SCALE
  5
7AA
102
{ACAD_REACTORS
330
7A4
102
}
330
7A4
100
AcDbScale
 70
     0
300
1:10
140
1.0
141
10.0
290
     0
  0
SCALE
  5
7AB
102
{ACAD_REACTORS
330
7A4
102
}
330
7A4
100
AcDbScale
 70
     0
300
1:16
140
1.0
141
16.0
290
     0
  0
SCALE
  5
7AC
102
{ACAD_REACTORS
330
7A4
102
}
330
7A4
100
AcDbScale
 70
     0
300
1:20
140
1.0
141
20.0
290
     0
  0
SCALE
  5
7AD
102
{ACAD_REACTORS
330
7A4
102
}
330
7A4
100
AcDbScale
 70
     0
300
1:30
140
1.0
141
30.0
290
     0
  0
SCALE
  5
7AE
102
{ACAD_REACTORS
330
7A4
102
}
330
7A4
100
AcDbScale
 70
     0
300
1:40
140
1.0
141
40.0
290
     0
  0
SCALE
  5
7AF
102
{ACAD_REACTORS
330
7A4
102
}
330
7A4
100
AcDbScale
 70
     0
300
1:50
140
1.0
141
50.0
290
     0
  0
SCALE
  5
7B0
102
{ACAD_REACTORS
330
7A4
102
}
330
7A4
100
AcDbScale
 70
     0
300
1:100
140
1.0
141
100.0
290
     0
  0
SCALE
  5
7B1
102
{ACAD_REACTORS
330
7A4
102
}
330
7A4
100
AcDbScale
 70
     0
300
2:1
140
2.0
141
1.0
290
     0
  0
SCALE
  5
7B2
102
{ACAD_REACTORS
330
7A4
102
}
330
7A4
100
AcDbScale
 70
     0
300
4:1
140
4.0
141
1.0
290
     0
  0
SCALE
  5
7B3
102
{ACAD_REACTORS
330
7A4
102
}
330
7A4
100
AcDbScale
 70
     0
300
8:1
140
8.0
141
1.0
290
     0
  0
SCALE
  5
7B4
102
{ACAD_REACTORS
330
7A4
102
}
330
7A4
100
AcDbScale
 70
     0
300
10:1
140
10.0
141
1.0
290
     0
  0
SCALE
  5
7B5
102
{ACAD_REACTORS
330
7A4
102
}
330
7A4
100
AcDbScale
 70
     0
300
100:1
140
100.0
141
1.0
290
     0
  0
SCALE
  5
7B6
102
{ACAD_REACTORS
330
7A4
102
}
330
7A4
100
AcDbScale
 70
     0
300
1/128" = 1'-0"
140
0.0078125
141
12.0
290
     0
  0
SCALE
  5
7B7
102
{ACAD_REACTORS
330
7A4
102
}
330
7A4
100
AcDbScale
 70
     0
300
1/64" = 1'-0"
140
0.015625
141
12.0
290
     0
  0
SCALE
  5
7B8
102
{ACAD_REACTORS
330
7A4
102
}
330
7A4
100
AcDbScale
 70
     0
300
1/32" = 1'-0"
140
0.03125
141
12.0
290
     0
  0
SCALE
  5
7B9
102
{ACAD_REACTORS
330
7A4
102
}
330
7A4
100
AcDbScale
 70
     0
300
1/16" = 1'-0"
140
0.0625
141
12.0
290
     0
  0
SCALE
  5
7BA
102
{ACAD_REACTORS
330
7A4
102
}
330
7A4
100
AcDbScale
 70
     0
300
3/32" = 1'-0"
140
0.09375
141
12.0
290
     0
  0
SCALE
  5
7BB
102
{ACAD_REACTORS
330
7A4
102
}
330
7A4
100
AcDbScale
 70
     0
300
1/8" = 1'-0"
140
0.125
141
12.0
290
     0
  0
SCALE
  5
7BC
102
{ACAD_REACTORS
330
7A4
102
}
330
7A4
100
AcDbScale
 70
     0
300
3/16" = 1'-0"
140
0.1875
141
12.0
290
     0
  0
SCALE
  5
7BD
102
{ACAD_REACTORS
330
7A4
102
}
330
7A4
100
AcDbScale
 70
     0
300
1/4" = 1'-0"
140
0.25
141
12.0
290
     0
  0
SCALE
  5
7BE
102
{ACAD_REACTORS
330
7A4
102
}
330
7A4
100
AcDbScale
 70
     0
300
3/8" = 1'-0"
140
0.375
141
12.0
290
     0
  0
SCALE
  5
7BF
102
{ACAD_REACTORS
330
7A4
102
}
330
7A4
100
AcDbScale
 70
     0
300
1/2" = 1'-0"
140
0.5
141
12.0
290
     0
  0
SCALE
  5
7C0
102
{ACAD_REACTORS
330
7A4
102
}
330
7A4
100
AcDbScale
 70
     0
300
3/4" = 1'-0"
140
0.75
141
12.0
290
     0
  0
SCALE
  5
7C1
102
{ACAD_REACTORS
330
7A4
102
}
330
7A4
100
AcDbScale
 70
     0
300
1" = 1'-0"
140
1.0
141
12.0
290
     0
  0
SCALE
  5
7C2
102
{ACAD_REACTORS
330
7A4
102
}
330
7A4
100
AcDbScale
 70
     0
300
1-1/2" = 1'-0"
140
1.5
141
12.0
290
     0
  0
SCALE
  5
7C3
102
{ACAD_REACTORS
330
7A4
102
}
330
7A4
100
AcDbScale
 70
     0
300
3" = 1'-0"
140
3.0
141
12.0
290
     0
  0
SCALE
  5
7C4
102
{ACAD_REACTORS
330
7A4
102
}
330
7A4
100
AcDbScale
 70
     0
300
6" = 1'-0"
140
6.0
141
12.0
290
     0
  0
SCALE
  5
7C5
102
{ACAD_REACTORS
330
7A4
102
}
330
7A4
100
AcDbScale
 70
     0
300
1'-0" = 1'-0"
140
12.0
141
12.0
290
     0
  0
TABLESTYLE
  5
7C7
102
{ACAD_REACTORS
330
7C6
102
}
102
{ACAD_XDICTIONARY
360
9BC
102
}
330
7C6
100
AcDbTableStyle
  3
Standard
 70
     0
 71
     0
 40
0.06
 41
0.06
280
     0
281
     0
  7
Standard
140
0.18
170
     2
 62
     0
 63
   257
283
     0
 90
        4
 91
        0
  1

274
    -2
284
     1
 64
     0
275
    -2
285
     1
 65
     0
276
    -2
286
     1
 66
     0
277
    -2
287
     1
 67
     0
278
    -2
288
     1
 68
     0
279
    -2
289
     1
 69
     0
  7
Standard
140
0.25
170
     5
 62
     0
 63
   257
283
     0
 90
        4
 91
        0
  1

274
    -2
284
     1
 64
     0
275
    -2
285
     1
 65
     0
276
    -2
286
     1
 66
     0
277
    -2
287
     1
 67
     0
278
    -2
288
     1
 68
     0
279
    -2
289
     1
 69
     0
  7
Standard
140
0.18
170
     5
 62
     0
 63
   257
283
     0
 90
        4
 91
        0
  1

274
    -2
284
     1
 64
     0
275
    -2
285
     1
 65
     0
276
    -2
286
     1
 66
     0
277
    -2
287
     1
 67
     0
278
    -2
288
     1
 68
     0
279
    -2
289
     1
 69
     0
  0
VISUALSTYLE
  5
78C
102
{ACAD_REACTORS
330
787
102
}
330
787
100
AcDbVisualStyle
  2
2dWireframe
 70
     4
177
     3
291
     0
 70
    58
 90
        0
176
     1
 90
        2
176
     1
 90
        0
176
     1
 90
        0
176
     1
 40
0.6
176
     1
 40
30.0
176
     1
 62
     7
420
 16777215
176
     1
 90
        1
176
     1
 90
        4
176
     1
 62
     7
176
     1
 62
   257
176
     1
 90
        1
176
     1
 90
        1
176
     1
 40
1.0
176
     1
 90
        0
176
     1
 62
   257
176
     1
 40
1.0
176
     1
 90
        1
176
     1
 90
        6
176
     1
 90
        2
176
     1
 62
     7
176
     1
 90
        5
176
     1
 90
        0
176
     1
 90
        0
176
     1
290
     0
176
     1
 90
        1
176
     1
 40
0.0
176
     1
 90
        0
176
     1
290
     1
176
     1
290
     1
176
     1
290
     0
176
     1
290
     0
176
     1
290
     0
176
     1
290
     0
176
     1
290
     0
176
     1
290
     0
176
     1
290
     0
176
     1
 90
       50
176
     1
 40
0.0
176
     1
 40
1.0
176
     1
 90
        0
176
     1
 62
   178
420
        0
176
     1
 90
       50
176
     1
 90
        3
176
     1
 62
     5
420
      255
176
     1
290
     0
176
     1
 90
       50
176
     1
 90
       50
176
     1
 90
       50
176
     1
290
     0
176
     1
 90
       50
176
     1
 62
   256
176
     0
 40
1.0
176
     0
 90
        2
176
     1
  1
strokes_ogs.tif
176
     1
290
     0
176
     1
 40
1.0
176
     1
 40
1.0
176
     1
  0
VISUALSTYLE
  5
78F
102
{ACAD_REACTORS
330
787
102
}
330
787
100
AcDbVisualStyle
  2
Basic
 70
     7
177
     3
291
     1
 70
    58
 90
        1
176
     1
 90
        0
176
     1
 90
        1
176
     1
 90
        0
176
     1
 40
0.6
176
     1
 40
30.0
176
     1
 62
     7
420
 16777215
176
     1
 90
        0
176
     1
 90
        4
176
     1
 62
     7
176
     1
 62
   257
176
     1
 90
        1
176
     1
 90
        1
176
     1
 40
1.0
176
     1
 90
        8
176
     1
 62
     7
176
     1
 40
1.0
176
     1
 90
        1
176
     1
 90
        6
176
     1
 90
        2
176
     1
 62
     7
176
     1
 90
        5
176
     1
 90
        0
176
     1
 90
        0
176
     1
290
     0
176
     1
 90
        1
176
     1
 40
0.0
176
     1
 90
        0
176
     1
290
     0
176
     1
290
     1
176
     1
290
     1
176
     1
290
     0
176
     1
290
     0
176
     1
290
     0
176
     1
290
     0
176
     1
290
     0
176
     1
290
     0
176
     1
 90
       50
176
     1
 40
0.0
176
     1
 40
1.0
176
     1
 90
        0
176
     1
 62
   178
420
        0
176
     1
 90
       50
176
     1
 90
        3
176
     1
 62
     5
420
      255
176
     1
290
     0
176
     1
 90
       50
176
     1
 90
       50
176
     1
 90
       50
176
     1
290
     0
176
     1
 90
       50
176
     1
 62
   256
176
     0
 40
1.0
176
     0
 90
        2
176
     1
  1
strokes_ogs.tif
176
     1
290
     0
176
     1
 40
1.0
176
     1
 40
1.0
176
     1
  0
VISUALSTYLE
  5
793
102
{ACAD_REACTORS
330
787
102
}
330
787
100
AcDbVisualStyle
  2
Brighten
 70
    12
177
     3
291
     1
 70
    58
 90
        2
176
     1
 90
        2
176
     1
 90
        0
176
     1
 90
        0
176
     1
 40
0.6
176
     1
 40
30.0
176
     1
 62
     7
420
 16777215
176
     1
 90
        1
176
     1
 90
        4
176
     1
 62
     7
176
     1
 62
   257
176
     1
 90
        1
176
     1
 90
        1
176
     1
 40
1.0
176
     1
 90
        8
176
     1
 62
     7
176
     1
 40
1.0
176
     1
 90
        1
176
     1
 90
        6
176
     1
 90
        2
176
     1
 62
     7
176
     1
 90
        5
176
     1
 90
        0
176
     1
 90
        0
176
     1
290
     0
176
     1
 90
        1
176
     1
 40
50.0
176
     1
 90
        0
176
     1
290
     0
176
     1
290
     1
176
     1
290
     1
176
     1
290
     0
176
     1
290
     0
176
     1
290
     0
176
     1
290
     0
176
     1
290
     0
176
     1
290
     0
176
     1
 90
       50
176
     1
 40
0.0
176
     1
 40
1.0
176
     1
 90
        0
176
     1
 62
   178
420
        0
176
     1
 90
       50
176
     1
 90
        3
176
     1
 62
     5
420
      255
176
     1
290
     0
176
     1
 90
       50
176
     1
 90
       50
176
     1
 90
       50
176
     1
290
     0
176
     1
 90
       50
176
     1
 62
   256
176
     0
 40
1.0
176
     0
 90
        2
176
     1
  1
strokes_ogs.tif
176
     1
290
     0
176
     1
 40
1.0
176
     1
 40
1.0
176
     1
  0
VISUALSTYLE
  5
797
102
{ACAD_REACTORS
330
787
102
}
330
787
100
AcDbVisualStyle
  2
ColorChange
 70
    16
177
     3
291
     1
 70
    58
 90
        2
176
     1
 90
        2
176
     1
 90
        3
176
     1
 90
        0
176
     1
 40
0.6
176
     1
 40
30.0
176
     1
 62
     8
420
  8421504
176
     1
 90
        1
176
     1
 90
        4
176
     1
 62
     7
176
     1
 62
   257
176
     1
 90
        1
176
     1
 90
        1
176
     1
 40
1.0
176
     1
 90
        8
176
     1
 62
     8
420
  8421504
176
     1
 40
1.0
176
     1
 90
        1
176
     1
 90
        6
176
     1
 90
        2
176
     1
 62
     7
176
     1
 90
        5
176
     1
 90
        0
176
     1
 90
        0
176
     1
290
     0
176
     1
 90
        1
176
     1
 40
0.0
176
     1
 90
        0
176
     1
290
     0
176
     1
290
     1
176
     1
290
     1
176
     1
290
     0
176
     1
290
     0
176
     1
290
     0
176
     1
290
     0
176
     1
290
     0
176
     1
290
     0
176
     1
 90
       50
176
     1
 40
0.0
176
     1
 40
1.0
176
     1
 90
        0
176
     1
 62
   178
420
        0
176
     1
 90
       50
176
     1
 90
        3
176
     1
 62
     5
420
      255
176
     1
290
     0
176
     1
 90
       50
176
     1
 90
       50
176
     1
 90
       50
176
     1
290
     0
176
     1
 90
       50
176
     1
 62
   256
176
     0
 40
1.0
176
     0
 90
        2
176
     1
  1
strokes_ogs.tif
176
     1
290
     0
176
     1
 40
1.0
176
     1
 40
1.0
176
     1
  0
VISUALSTYLE
  5
791
102
{ACAD_REACTORS
330
787
102
}
330
787
100
AcDbVisualStyle
  2
Conceptual
 70
     9
177
     3
291
     0
 70
    58
 90
        3
176
     1
 90
        2
176
     1
 90
        0
176
     1
 90
        0
176
     1
 40
0.6
176
     1
 40
30.0
176
     1
 62
     7
420
 16777215
176
     1
 90
        2
176
     1
 90
        2
176
     1
 62
     7
176
     1
 62
   257
176
     1
 90
        1
176
     1
 90
        1
176
     1
 40
179.0
176
     1
 90
        8
176
     1
 62
     7
176
     1
 40
1.0
176
     1
 90
        1
176
     1
 90
        6
176
     1
 90
        2
176
     1
 62
     7
176
     1
 90
        3
176
     1
 90
        0
176
     1
 90
        0
176
     1
290
     0
176
     1
 90
        1
176
     1
 40
0.0
176
     1
 90
        0
176
     1
290
     0
176
     1
290
     1
176
     1
290
     1
176
     1
290
     0
176
     1
290
     0
176
     1
290
     0
176
     1
290
     0
176
     1
290
     0
176
     1
290
     0
176
     1
 90
       50
176
     1
 40
0.0
176
     1
 40
1.0
176
     1
 90
        0
176
     1
 62
   178
420
        0
176
     1
 90
       50
176
     1
 90
        3
176
     1
 62
     5
420
      255
176
     1
290
     0
176
     1
 90
       50
176
     1
 90
       50
176
     1
 90
       50
176
     1
290
     0
176
     1
 90
       50
176
     1
 62
   256
176
     0
 40
1.0
176
     0
 90
        2
176
     1
  1
strokes_ogs.tif
176
     1
290
     0
176
     1
 40
1.0
176
     1
 40
1.0
176
     1
  0
VISUALSTYLE
  5
792
102
{ACAD_REACTORS
330
787
102
}
330
787
100
AcDbVisualStyle
  2
Dim
 70
    11
177
     3
291
     1
 70
    58
 90
        2
176
     1
 90
        2
176
     1
 90
        0
176
     1
 90
        0
176
     1
 40
0.6
176
     1
 40
30.0
176
     1
 62
     7
420
 16777215
176
     1
 90
        1
176
     1
 90
        4
176
     1
 62
     7
176
     1
 62
   257
176
     1
 90
        1
176
     1
 90
        1
176
     1
 40
1.0
176
     1
 90
        8
176
     1
 62
     7
176
     1
 40
1.0
176
     1
 90
        1
176
     1
 90
        6
176
     1
 90
        2
176
     1
 62
     7
176
     1
 90
        5
176
     1
 90
        0
176
     1
 90
        0
176
     1
290
     0
176
     1
 90
        1
176
     1
 40
-50.0
176
     1
 90
        0
176
     1
290
     0
176
     1
290
     1
176
     1
290
     1
176
     1
290
     0
176
     1
290
     0
176
     1
290
     0
176
     1
290
     0
176
     1
290
     0
176
     1
290
     0
176
     1
 90
       50
176
     1
 40
0.0
176
     1
 40
1.0
176
     1
 90
        0
176
     1
 62
   178
420
        0
176
     1
 90
       50
176
     1
 90
        3
176
     1
 62
     5
420
      255
176
     1
290
     0
176
     1
 90
       50
176
     1
 90
       50
176
     1
 90
       50
176
     1
290
     0
176
     1
 90
       50
176
     1
 62
   256
176
     0
 40
1.0
176
     0
 90
        2
176
     1
  1
strokes_ogs.tif
176
     1
290
     0
176
     1
 40
1.0
176
     1
 40
1.0
176
     1
  0
VISUALSTYLE
  5
79A
102
{ACAD_REACTORS
330
787
102
}
330
787
100
AcDbVisualStyle
  2
EdgeColorOff
 70
    22
177
     3
291
     1
 70
    58
 90
        2
176
     0
 90
        2
176
     0
 90
        0
176
     0
 90
        0
176
     0
 40
0.6
176
     0
 40
30.0
176
     0
 62
     7
420
 16777215
176
     0
 90
        1
176
     0
 90
        4
176
     0
 62
     7
176
     0
 62
   257
176
     0
 90
        1
176
     0
 90
        1
176
     0
 40
1.0
176
     0
 90
        8
176
     2
 62
     7
176
     0
 40
1.0
176
     0
 90
        1
176
     0
 90
        6
176
     0
 90
        2
176
     0
 62
     7
176
     0
 90
        5
176
     0
 90
        0
176
     0
 90
        0
176
     0
290
     0
176
     0
 90
        1
176
     0
 40
0.0
176
     0
 90
        0
176
     0
290
     0
176
     0
290
     1
176
     0
290
     1
176
     0
290
     0
176
     0
290
     0
176
     0
290
     0
176
     0
290
     0
176
     0
290
     0
176
     0
290
     0
176
     0
 90
       50
176
     0
 40
0.0
176
     0
 40
1.0
176
     0
 90
        0
176
     0
 62
   178
420
        0
176
     0
 90
       50
176
     0
 90
        3
176
     0
 62
     5
420
      255
176
     0
290
     0
176
     0
 90
       50
176
     0
 90
       50
176
     0
 90
       50
176
     0
290
     0
176
     0
 90
       50
176
     0
 62
   256
176
     0
 40
1.0
176
     0
 90
        2
176
     0
  1
strokes_ogs.tif
176
     0
290
     0
176
     0
 40
1.0
176
     0
 40
1.0
176
     0
  0
VISUALSTYLE
  5
796
102
{ACAD_REACTORS
330
787
102
}
330
787
100
AcDbVisualStyle
  2
Facepattern
 70
    15
177
     3
291
     1
 70
    58
 90
        2
176
     1
 90
        2
176
     1
 90
        0
176
     1
 90
        0
176
     1
 40
0.6
176
     1
 40
30.0
176
     1
 62
     7
420
 16777215
176
     1
 90
        1
176
     1
 90
        4
176
     1
 62
     7
176
     1
 62
   257
176
     1
 90
        1
176
     1
 90
        1
176
     1
 40
1.0
176
     1
 90
        8
176
     1
 62
     7
176
     1
 40
1.0
176
     1
 90
        1
176
     1
 90
        6
176
     1
 90
        2
176
     1
 62
     7
176
     1
 90
        5
176
     1
 90
        0
176
     1
 90
        0
176
     1
290
     0
176
     1
 90
        1
176
     1
 40
0.0
176
     1
 90
        0
176
     1
290
     0
176
     1
290
     1
176
     1
290
     1
176
     1
290
     0
176
     1
290
     0
176
     1
290
     0
176
     1
290
     0
176
     1
290
     0
176
     1
290
     0
176
     1
 90
       50
176
     1
 40
0.0
176
     1
 40
1.0
176
     1
 90
        0
176
     1
 62
   178
420
        0
176
     1
 90
       50
176
     1
 90
        3
176
     1
 62
     5
420
      255
176
     1
290
     0
176
     1
 90
       50
176
     1
 90
       50
176
     1
 90
       50
176
     1
290
     0
176
     1
 90
       50
176
     1
 62
   256
176
     0
 40
1.0
176
     0
 90
        2
176
     1
  1
strokes_ogs.tif
176
     1
290
     0
176
     1
 40
1.0
176
     1
 40
1.0
176
     1
  0
VISUALSTYLE
  5
788
102
{ACAD_REACTORS
330
787
102
}
330
787
100
AcDbVisualStyle
  2
Flat
 70
     0
177
     3
291
     1
 70
    58
 90
        2
176
     1
 90
        1
176
     1
 90
        1
176
     1
 90
        2
176
     1
 40
0.6
176
     1
 40
30.0
176
     1
 62
     7
420
 16777215
176
     1
 90
        0
176
     1
 90
        0
176
     1
 62
     7
176
     1
 62
   257
176
     1
 90
        1
176
     1
 90
        1
176
     1
 40
1.0
176
     1
 90
        8
176
     1
 62
     7
176
     1
 40
1.0
176
     1
 90
        1
176
     1
 90
        6
176
     1
 90
        2
176
     1
 62
     7
176
     1
 90
        5
176
     1
 90
        0
176
     1
 90
        0
176
     1
290
     0
176
     1
 90
       13
176
     1
 40
0.0
176
     1
 90
        0
176
     1
290
     0
176
     1
290
     1
176
     1
290
     1
176
     1
290
     0
176
     1
290
     0
176
     1
290
     0
176
     1
290
     0
176
     1
290
     0
176
     1
290
     0
176
     1
 90
       50
176
     1
 40
0.0
176
     1
 40
1.0
176
     1
 90
        0
176
     1
 62
   178
420
        0
176
     1
 90
       50
176
     1
 90
        3
176
     1
 62
     5
420
      255
176
     1
290
     0
176
     1
 90
       50
176
     1
 90
       50
176
     1
 90
       50
176
     1
290
     0
176
     1
 90
       50
176
     1
 62
   256
176
     0
 40
1.0
176
     0
 90
        2
176
     1
  1
strokes_ogs.tif
176
     1
290
     0
176
     1
 40
1.0
176
     1
 40
1.0
176
     1
  0
VISUALSTYLE
  5
789
102
{ACAD_REACTORS
330
787
102
}
330
787
100
AcDbVisualStyle
  2
FlatWithEdges
 70
     1
177
     3
291
     1
 70
    58
 90
        2
176
     1
 90
        1
176
     1
 90
        1
176
     1
 90
        2
176
     1
 40
0.6
176
     1
 40
30.0
176
     1
 62
     7
420
 16777215
176
     1
 90
        1
176
     1
 90
        0
176
     1
 62
     7
176
     1
 62
   257
176
     1
 90
        1
176
     1
 90
        1
176
     1
 40
1.0
176
     1
 90
        0
176
     1
 62
   257
176
     1
 40
1.0
176
     1
 90
        1
176
     1
 90
        6
176
     1
 90
        2
176
     1
 62
     7
176
     1
 90
        5
176
     1
 90
        0
176
     1
 90
        0
176
     1
290
     0
176
     1
 90
       13
176
     1
 40
0.0
176
     1
 90
        0
176
     1
290
     0
176
     1
290
     1
176
     1
290
     1
176
     1
290
     0
176
     1
290
     0
176
     1
290
     0
176
     1
290
     0
176
     1
290
     0
176
     1
290
     0
176
     1
 90
       50
176
     1
 40
0.0
176
     1
 40
1.0
176
     1
 90
        0
176
     1
 62
   178
420
        0
176
     1
 90
       50
176
     1
 90
        3
176
     1
 62
     5
420
      255
176
     1
290
     0
176
     1
 90
       50
176
     1
 90
       50
176
     1
 90
       50
176
     1
290
     0
176
     1
 90
       50
176
     1
 62
   256
176
     0
 40
1.0
176
     0
 90
        2
176
     1
  1
strokes_ogs.tif
176
     1
290
     0
176
     1
 40
1.0
176
     1
 40
1.0
176
     1
  0
VISUALSTYLE
  5
78A
102
{ACAD_REACTORS
330
787
102
}
330
787
100
AcDbVisualStyle
  2
Gouraud
 70
     2
177
     3
291
     1
 70
    58
 90
        2
176
     1
 90
        2
176
     1
 90
        1
176
     1
 90
        2
176
     1
 40
0.6
176
     1
 40
30.0
176
     1
 62
     7
420
 16777215
176
     1
 90
        0
176
     1
 90
        0
176
     1
 62
     7
176
     1
 62
   257
176
     1
 90
        1
176
     1
 90
        1
176
     1
 40
1.0
176
     1
 90
        0
176
     1
 62
     7
176
     1
 40
1.0
176
     1
 90
        1
176
     1
 90
        6
176
     1
 90
        2
176
     1
 62
     7
176
     1
 90
        5
176
     1
 90
        0
176
     1
 90
        0
176
     1
290
     0
176
     1
 90
       13
176
     1
 40
0.0
176
     1
 90
        0
176
     1
290
     0
176
     1
290
     1
176
     1
290
     1
176
     1
290
     0
176
     1
290
     0
176
     1
290
     0
176
     1
290
     0
176
     1
290
     0
176
     1
290
     0
176
     1
 90
       50
176
     1
 40
0.0
176
     1
 40
1.0
176
     1
 90
        0
176
     1
 62
   178
420
        0
176
     1
 90
       50
176
     1
 90
        3
176
     1
 62
     5
420
      255
176
     1
290
     0
176
     1
 90
       50
176
     1
 90
       50
176
     1
 90
       50
176
     1
290
     0
176
     1
 90
       50
176
     1
 62
   256
176
     0
 40
1.0
176
     0
 90
        2
176
     1
  1
strokes_ogs.tif
176
     1
290
     0
176
     1
 40
1.0
176
     1
 40
1.0
176
     1
  0
VISUALSTYLE
  5
78B
102
{ACAD_REACTORS
330
787
102
}
330
787
100
AcDbVisualStyle
  2
GouraudWithEdges
 70
     3
177
     3
291
     1
 70
    58
 90
        2
176
     1
 90
        2
176
     1
 90
        1
176
     1
 90
        2
176
     1
 40
0.6
176
     1
 40
30.0
176
     1
 62
     7
420
 16777215
176
     1
 90
        1
176
     1
 90
        0
176
     1
 62
     7
176
     1
 62
   257
176
     1
 90
        1
176
     1
 90
        1
176
     1
 40
1.0
176
     1
 90
        0
176
     1
 62
   257
176
     1
 40
1.0
176
     1
 90
        1
176
     1
 90
        6
176
     1
 90
        2
176
     1
 62
     7
176
     1
 90
        5
176
     1
 90
        0
176
     1
 90
        0
176
     1
290
     0
176
     1
 90
       13
176
     1
 40
0.0
176
     1
 90
        0
176
     1
290
     0
176
     1
290
     1
176
     1
290
     1
176
     1
290
     0
176
     1
290
     0
176
     1
290
     0
176
     1
290
     0
176
     1
290
     0
176
     1
290
     0
176
     1
 90
       50
176
     1
 40
0.0
176
     1
 40
1.0
176
     1
 90
        0
176
     1
 62
   178
420
        0
176
     1
 90
       50
176
     1
 90
        3
176
     1
 62
     5
420
      255
176
     1
290
     0
176
     1
 90
       50
176
     1
 90
       50
176
     1
 90
       50
176
     1
290
     0
176
     1
 90
       50
176
     1
 62
   256
176
     0
 40
1.0
176
     0
 90
        2
176
     1
  1
strokes_ogs.tif
176
     1
290
     0
176
     1
 40
1.0
176
     1
 40
1.0
176
     1
  0
VISUALSTYLE
  5
78E
102
{ACAD_REACTORS
330
787
102
}
330
787
100
AcDbVisualStyle
  2
Hidden
 70
     6
177
     3
291
     0
 70
    58
 90
        1
176
     1
 90
        2
176
     1
 90
        2
176
     1
 90
        0
176
     1
 40
0.6
176
     1
 40
30.0
176
     1
 62
     7
420
 16777215
176
     1
 90
        2
176
     1
 90
        2
176
     1
 62
     7
176
     1
 62
   257
176
     1
 90
        2
176
     1
 90
        1
176
     1
 40
40.0
176
     1
 90
        0
176
     1
 62
   257
176
     1
 40
1.0
176
     1
 90
        1
176
     1
 90
        6
176
     1
 90
        2
176
     1
 62
     7
176
     1
 90
        3
176
     1
 90
        0
176
     1
 90
        0
176
     1
290
     0
176
     1
 90
        1
176
     1
 40
0.0
176
     1
 90
        0
176
     1
290
     0
176
     1
290
     1
176
     1
290
     1
176
     1
290
     0
176
     1
290
     0
176
     1
290
     0
176
     1
290
     0
176
     1
290
     0
176
     1
290
     0
176
     1
 90
       50
176
     1
 40
0.0
176
     1
 40
1.0
176
     1
 90
        0
176
     1
 62
   178
420
        0
176
     1
 90
       50
176
     1
 90
        3
176
     1
 62
     5
420
      255
176
     1
290
     0
176
     1
 90
       50
176
     1
 90
       50
176
     1
 90
       50
176
     1
290
     0
176
     1
 90
       50
176
     1
 62
   256
176
     0
 40
1.0
176
     0
 90
        2
176
     1
  1
strokes_ogs.tif
176
     1
290
     0
176
     1
 40
1.0
176
     1
 40
1.0
176
     1
  0
VISUALSTYLE
  5
798
102
{ACAD_REACTORS
330
787
102
}
330
787
100
AcDbVisualStyle
  2
JitterOff
 70
    20
177
     3
291
     1
 70
    58
 90
        2
176
     0
 90
        2
176
     0
 90
        0
176
     0
 90
        0
176
     0
 40
0.6
176
     0
 40
30.0
176
     0
 62
     7
420
 16777215
176
     0
 90
        1
176
     0
 90
        4
176
     0
 62
     7
176
     0
 62
   257
176
     0
 90
        1
176
     0
 90
        1
176
     0
 40
1.0
176
     0
 90
       10
176
     2
 62
     7
176
     0
 40
1.0
176
     0
 90
        1
176
     0
 90
        6
176
     0
 90
        2
176
     0
 62
     7
176
     0
 90
        5
176
     0
 90
        0
176
     0
 90
        0
176
     0
290
     0
176
     0
 90
        1
176
     0
 40
0.0
176
     0
 90
        0
176
     0
290
     0
176
     0
290
     1
176
     0
290
     1
176
     0
290
     0
176
     0
290
     0
176
     0
290
     0
176
     0
290
     0
176
     0
290
     0
176
     0
290
     0
176
     0
 90
       50
176
     0
 40
0.0
176
     0
 40
1.0
176
     0
 90
        0
176
     0
 62
   178
420
        0
176
     0
 90
       50
176
     0
 90
        3
176
     0
 62
     5
420
      255
176
     0
290
     0
176
     0
 90
       50
176
     0
 90
       50
176
     0
 90
       50
176
     0
290
     0
176
     0
 90
       50
176
     0
 62
   256
176
     0
 40
1.0
176
     0
 90
        2
176
     0
  1
strokes_ogs.tif
176
     0
290
     0
176
     0
 40
1.0
176
     0
 40
1.0
176
     0
  0
VISUALSTYLE
  5
795
102
{ACAD_REACTORS
330
787
102
}
330
787
100
AcDbVisualStyle
  2
Linepattern
 70
    14
177
     3
291
     1
 70
    58
 90
        2
176
     1
 90
        2
176
     1
 90
        0
176
     1
 90
        0
176
     1
 40
0.6
176
     1
 40
30.0
176
     1
 62
     7
420
 16777215
176
     1
 90
        1
176
     1
 90
        4
176
     1
 62
     7
176
     1
 62
   257
176
     1
 90
        7
176
     1
 90
        7
176
     1
 40
1.0
176
     1
 90
        8
176
     1
 62
     7
176
     1
 40
1.0
176
     1
 90
        1
176
     1
 90
        6
176
     1
 90
        2
176
     1
 62
     7
176
     1
 90
        5
176
     1
 90
        0
176
     1
 90
        0
176
     1
290
     0
176
     1
 90
        1
176
     1
 40
0.0
176
     1
 90
        0
176
     1
290
     0
176
     1
290
     1
176
     1
290
     1
176
     1
290
     0
176
     1
290
     0
176
     1
290
     0
176
     1
290
     0
176
     1
290
     0
176
     1
290
     0
176
     1
 90
       50
176
     1
 40
0.0
176
     1
 40
1.0
176
     1
 90
        0
176
     1
 62
   178
420
        0
176
     1
 90
       50
176
     1
 90
        3
176
     1
 62
     5
420
      255
176
     1
290
     0
176
     1
 90
       50
176
     1
 90
       50
176
     1
 90
       50
176
     1
290
     0
176
     1
 90
       50
176
     1
 62
   256
176
     0
 40
1.0
176
     0
 90
        2
176
     1
  1
strokes_ogs.tif
176
     1
290
     0
176
     1
 40
1.0
176
     1
 40
1.0
176
     1
  0
VISUALSTYLE
  5
799
102
{ACAD_REACTORS
330
787
102
}
330
787
100
AcDbVisualStyle
  2
OverhangOff
 70
    21
177
     3
291
     1
 70
    58
 90
        2
176
     0
 90
        2
176
     0
 90
        0
176
     0
 90
        0
176
     0
 40
0.6
176
     0
 40
30.0
176
     0
 62
     7
420
 16777215
176
     0
 90
        1
176
     0
 90
        4
176
     0
 62
     7
176
     0
 62
   257
176
     0
 90
        1
176
     0
 90
        1
176
     0
 40
1.0
176
     0
 90
        9
176
     2
 62
     7
176
     0
 40
1.0
176
     0
 90
        1
176
     0
 90
        6
176
     0
 90
        2
176
     0
 62
     7
176
     0
 90
        5
176
     0
 90
        0
176
     0
 90
        0
176
     0
290
     0
176
     0
 90
        1
176
     0
 40
0.0
176
     0
 90
        0
176
     0
290
     0
176
     0
290
     1
176
     0
290
     1
176
     0
290
     0
176
     0
290
     0
176
     0
290
     0
176
     0
290
     0
176
     0
290
     0
176
     0
290
     0
176
     0
 90
       50
176
     0
 40
0.0
176
     0
 40
1.0
176
     0
 90
        0
176
     0
 62
   178
420
        0
176
     0
 90
       50
176
     0
 90
        3
176
     0
 62
     5
420
      255
176
     0
290
     0
176
     0
 90
       50
176
     0
 90
       50
176
     0
 90
       50
176
     0
290
     0
176
     0
 90
       50
176
     0
 62
   256
176
     0
 40
1.0
176
     0
 90
        2
176
     0
  1
strokes_ogs.tif
176
     0
290
     0
176
     0
 40
1.0
176
     0
 40
1.0
176
     0
  0
VISUALSTYLE
  5
790
102
{ACAD_REACTORS
330
787
102
}
330
787
100
AcDbVisualStyle
  2
Realistic
 70
     8
177
     3
291
     0
 70
    58
 90
        2
176
     1
 90
        3
176
     1
 90
        0
176
     1
 90
        2
176
     1
 40
0.6
176
     1
 40
30.0
176
     1
 62
     7
420
 16777215
176
     1
 90
        0
176
     1
 90
        0
176
     1
 62
     7
176
     1
 62
   257
176
     1
 90
        1
176
     1
 90
        1
176
     1
 40
1.0
176
     1
 90
        8
176
     1
 62
   257
176
     1
 40
1.0
176
     1
 90
        1
176
     1
 90
        6
176
     1
 90
        2
176
     1
 62
     7
176
     1
 90
        3
176
     1
 90
        0
176
     1
 90
        0
176
     1
290
     0
176
     1
 90
       13
176
     1
 40
0.0
176
     1
 90
        0
176
     1
290
     0
176
     1
290
     1
176
     1
290
     1
176
     1
290
     0
176
     1
290
     0
176
     1
290
     0
176
     1
290
     0
176
     1
290
     0
176
     1
290
     0
176
     1
 90
       50
176
     1
 40
0.0
176
     1
 40
1.0
176
     1
 90
        0
176
     1
 62
   178
420
        0
176
     1
 90
       50
176
     1
 90
        3
176
     1
 62
     5
420
      255
176
     1
290
     0
176
     1
 90
       50
176
     1
 90
       50
176
     1
 90
       50
176
     1
290
     0
176
     1
 90
       50
176
     1
 62
   256
176
     0
 40
1.0
176
     0
 90
        2
176
     1
  1
strokes_ogs.tif
176
     1
290
     0
176
     1
 40
1.0
176
     1
 40
1.0
176
     1
  0
VISUALSTYLE
  5
79F
102
{ACAD_REACTORS
330
787
102
}
330
787
100
AcDbVisualStyle
  2
Shaded
 70
    27
177
     3
291
     0
 70
    58
 90
        2
176
     1
 90
        2
176
     1
 90
        1
176
     1
 90
        2
176
     1
 40
0.6
176
     1
 40
30.0
176
     1
 62
     7
420
 16777215
176
     1
 90
        0
176
     1
 90
        4
176
     1
 62
     7
176
     1
 62
   257
176
     1
 90
        1
176
     1
 90
        1
176
     1
 40
1.0
176
     1
 90
        8
176
     1
 62
   257
176
     1
 40
1.0
176
     1
 90
        1
176
     1
 90
        6
176
     1
 90
        2
176
     1
 62
     8
420
  7895160
176
     1
 90
        3
176
     1
 90
        0
176
     1
 90
        0
176
     1
290
     0
176
     1
 90
        5
176
     1
 40
0.0
176
     1
 90
        0
176
     1
290
     0
176
     1
290
     1
176
     1
290
     1
176
     1
290
     0
176
     1
290
     0
176
     1
290
     0
176
     1
290
     0
176
     1
290
     0
176
     1
290
     0
176
     1
 90
       50
176
     1
 40
0.0
176
     1
 40
1.0
176
     1
 90
        0
176
     1
 62
   178
420
        0
176
     1
 90
       50
176
     1
 90
        3
176
     1
 62
     5
420
      255
176
     1
290
     0
176
     1
 90
       50
176
     1
 90
       50
176
     1
 90
       50
176
     1
290
     0
176
     1
 90
       50
176
     1
 62
   256
176
     0
 40
1.0
176
     0
 90
        2
176
     1
  1
strokes_ogs.tif
176
     1
290
     0
176
     1
 40
1.0
176
     1
 40
1.0
176
     1
  0
VISUALSTYLE
  5
79E
102
{ACAD_REACTORS
330
787
102
}
330
787
100
AcDbVisualStyle
  2
Shaded with edges
 70
    26
177
     3
291
     0
 70
    58
 90
        2
176
     1
 90
        2
176
     1
 90
        1
176
     1
 90
        2
176
     1
 40
0.6
176
     1
 40
30.0
176
     1
 62
     7
420
 16777215
176
     1
 90
        1
176
     1
 90
       10
176
     1
 62
     7
176
     1
 62
   257
176
     1
 90
        2
176
     1
 90
        1
176
     1
 40
1.0
176
     1
 90
        8
176
     1
 62
   257
176
     1
 40
1.0
176
     1
 90
        1
176
     1
 90
        6
176
     1
 90
        2
176
     1
 62
     7
176
     1
 90
        3
176
     1
 90
        0
176
     1
 90
        0
176
     1
290
     0
176
     1
 90
        5
176
     1
 40
0.0
176
     1
 90
        0
176
     1
290
     0
176
     1
290
     1
176
     1
290
     1
176
     1
290
     0
176
     1
290
     0
176
     1
290
     0
176
     1
290
     0
176
     1
290
     0
176
     1
290
     0
176
     1
 90
       50
176
     1
 40
0.0
176
     1
 40
1.0
176
     1
 90
        0
176
     1
 62
   178
420
        0
176
     1
 90
       50
176
     1
 90
        3
176
     1
 62
     5
420
      255
176
     1
290
     0
176
     1
 90
       50
176
     1
 90
       50
176
     1
 90
       50
176
     1
290
     0
176
     1
 90
       50
176
     1
 62
   256
176
     0
 40
1.0
176
     0
 90
        2
176
     1
  1
strokes_ogs.tif
176
     1
290
     0
176
     1
 40
1.0
176
     1
 40
1.0
176
     1
  0
VISUALSTYLE
  5
79B
102
{ACAD_REACTORS
330
787
102
}
330
787
100
AcDbVisualStyle
  2
Shades of Gray
 70
    23
177
     3
291
     0
 70
    58
 90
        2
176
     1
 90
        2
176
     1
 90
        3
176
     1
 90
        0
176
     1
 40
0.6
176
     1
 40
30.0
176
     1
 62
     7
420
 16777215
176
     1
 90
        2
176
     1
 90
        2
176
     1
 62
     7
176
     1
 62
     7
176
     1
 90
        1
176
     1
 90
        1
176
     1
 40
40.0
176
     1
 90
        8
176
     1
 62
     7
176
     1
 40
1.0
176
     1
 90
        1
176
     1
 90
        6
176
     1
 90
        2
176
     1
 62
     7
176
     1
 90
        3
176
     1
 90
        0
176
     1
 90
        0
176
     1
290
     0
176
     1
 90
        1
176
     1
 40
0.0
176
     1
 90
        0
176
     1
290
     0
176
     1
290
     1
176
     1
290
     1
176
     1
290
     0
176
     1
290
     0
176
     1
290
     0
176
     1
290
     0
176
     1
290
     0
176
     1
290
     0
176
     1
 90
       50
176
     1
 40
0.0
176
     1
 40
1.0
176
     1
 90
        0
176
     1
 62
   178
420
        0
176
     1
 90
       50
176
     1
 90
        3
176
     1
 62
     5
420
      255
176
     1
290
     0
176
     1
 90
       50
176
     1
 90
       50
176
     1
 90
       50
176
     1
290
     0
176
     1
 90
       50
176
     1
 62
   256
176
     0
 40
1.0
176
     0
 90
        2
176
     1
  1
strokes_ogs.tif
176
     1
290
     0
176
     1
 40
1.0
176
     1
 40
1.0
176
     1
  0
VISUALSTYLE
  5
79C
102
{ACAD_REACTORS
330
787
102
}
330
787
100
AcDbVisualStyle
  2
Sketchy
 70
    24
177
     3
291
     0
 70
    58
 90
        1
176
     1
 90
        2
176
     1
 90
        2
176
     1
 90
        0
176
     1
 40
0.6
176
     1
 40
30.0
176
     1
 62
     7
420
 16777215
176
     1
 90
        2
176
     1
 90
        2
176
     1
 62
     7
176
     1
 62
     7
176
     1
 90
        1
176
     1
 90
        1
176
     1
 40
40.0
176
     1
 90
       11
176
     1
 62
     7
176
     1
 40
1.0
176
     1
 90
        1
176
     1
 90
        6
176
     1
 90
        2
176
     1
 62
     7
176
     1
 90
        6
176
     1
 90
        0
176
     1
 90
        0
176
     1
290
     0
176
     1
 90
        1
176
     1
 40
0.0
176
     1
 90
        0
176
     1
290
     0
176
     1
290
     1
176
     1
290
     1
176
     1
290
     0
176
     1
290
     0
176
     1
290
     0
176
     1
290
     0
176
     1
290
     0
176
     1
290
     0
176
     1
 90
       50
176
     1
 40
0.0
176
     1
 40
1.0
176
     1
 90
        0
176
     1
 62
   178
420
        0
176
     1
 90
       50
176
     1
 90
        3
176
     1
 62
     5
420
      255
176
     1
290
     0
176
     1
 90
       50
176
     1
 90
       50
176
     1
 90
       50
176
     1
290
     0
176
     1
 90
       50
176
     1
 62
   256
176
     0
 40
1.0
176
     0
 90
        2
176
     1
  1
strokes_ogs.tif
176
     1
290
     0
176
     1
 40
1.0
176
     1
 40
1.0
176
     1
  0
VISUALSTYLE
  5
794
102
{ACAD_REACTORS
330
787
102
}
330
787
100
AcDbVisualStyle
  2
Thicken
 70
    13
177
     3
291
     1
 70
    58
 90
        2
176
     1
 90
        2
176
     1
 90
        0
176
     1
 90
        0
176
     1
 40
0.6
176
     1
 40
30.0
176
     1
 62
     7
420
 16777215
176
     1
 90
        1
176
     1
 90
        4
176
     1
 62
     7
176
     1
 62
   257
176
     1
 90
        1
176
     1
 90
        1
176
     1
 40
1.0
176
     1
 90
       12
176
     1
 62
     7
176
     1
 40
1.0
176
     1
 90
        1
176
     1
 90
        6
176
     1
 90
        2
176
     1
 62
     7
176
     1
 90
        5
176
     1
 90
        0
176
     1
 90
        0
176
     1
290
     0
176
     1
 90
        1
176
     1
 40
0.0
176
     1
 90
        0
176
     1
290
     0
176
     1
290
     1
176
     1
290
     1
176
     1
290
     0
176
     1
290
     0
176
     1
290
     0
176
     1
290
     0
176
     1
290
     0
176
     1
290
     0
176
     1
 90
       50
176
     1
 40
0.0
176
     1
 40
1.0
176
     1
 90
        0
176
     1
 62
   178
420
        0
176
     1
 90
       50
176
     1
 90
        3
176
     1
 62
     5
420
      255
176
     1
290
     0
176
     1
 90
       50
176
     1
 90
       50
176
     1
 90
       50
176
     1
290
     0
176
     1
 90
       50
176
     1
 62
   256
176
     0
 40
1.0
176
     0
 90
        2
176
     1
  1
strokes_ogs.tif
176
     1
290
     0
176
     1
 40
1.0
176
     1
 40
1.0
176
     1
  0
VISUALSTYLE
  5
78D
102
{ACAD_REACTORS
330
787
102
}
330
787
100
AcDbVisualStyle
  2
Wireframe
 70
     5
177
     3
291
     0
 70
    58
 90
        0
176
     1
 90
        2
176
     1
 90
        0
176
     1
 90
        0
176
     1
 40
0.6
176
     1
 40
30.0
176
     1
 62
     7
420
 16777215
176
     1
 90
        1
176
     1
 90
        4
176
     1
 62
     7
176
     1
 62
   257
176
     1
 90
        1
176
     1
 90
        1
176
     1
 40
1.0
176
     1
 90
        0
176
     1
 62
   257
176
     1
 40
1.0
176
     1
 90
        1
176
     1
 90
        6
176
     1
 90
        2
176
     1
 62
     7
176
     1
 90
        3
176
     1
 90
        0
176
     1
 90
        0
176
     1
290
     0
176
     1
 90
        1
176
     1
 40
0.0
176
     1
 90
        0
176
     1
290
     0
176
     1
290
     1
176
     1
290
     1
176
     1
290
     0
176
     1
290
     0
176
     1
290
     0
176
     1
290
     0
176
     1
290
     0
176
     1
290
     0
176
     1
 90
       50
176
     1
 40
0.0
176
     1
 40
1.0
176
     1
 90
        0
176
     1
 62
   178
420
        0
176
     1
 90
       50
176
     1
 90
        3
176
     1
 62
     5
420
      255
176
     1
290
     0
176
     1
 90
       50
176
     1
 90
       50
176
     1
 90
       50
176
     1
290
     0
176
     1
 90
       50
176
     1
 62
   256
176
     0
 40
1.0
176
     0
 90
        2
176
     1
  1
strokes_ogs.tif
176
     1
290
     0
176
     1
 40
1.0
176
     1
 40
1.0
176
     1
  0
VISUALSTYLE
  5
79D
102
{ACAD_REACTORS
330
787
102
}
330
787
100
AcDbVisualStyle
  2
X-Ray
 70
    25
177
     3
291
     0
 70
    58
 90
        2
176
     1
 90
        2
176
     1
 90
        1
176
     1
 90
        1
176
     1
 40
0.5
176
     1
 40
30.0
176
     1
 62
     7
420
 16777215
176
     1
 90
        1
176
     1
 90
        0
176
     1
 62
     7
176
     1
 62
   257
176
     1
 90
        1
176
     1
 90
        1
176
     1
 40
1.0
176
     1
 90
        8
176
     1
 62
     7
176
     1
 40
1.0
176
     1
 90
        1
176
     1
 90
        6
176
     1
 90
        2
176
     1
 62
     7
176
     1
 90
        3
176
     1
 90
        0
176
     1
 90
        0
176
     1
290
     0
176
     1
 90
       13
176
     1
 40
0.0
176
     1
 90
        0
176
     1
290
     0
176
     1
290
     1
176
     1
290
     1
176
     1
290
     0
176
     1
290
     0
176
     1
290
     0
176
     1
290
     0
176
     1
290
     0
176
     1
290
     0
176
     1
 90
       50
176
     1
 40
0.0
176
     1
 40
1.0
176
     1
 90
        0
176
     1
 62
   178
420
        0
176
     1
 90
       50
176
     1
 90
        3
176
     1
 62
     5
420
      255
176
     1
290
     0
176
     1
 90
       50
176
     1
 90
       50
176
     1
 90
       50
176
     1
290
     0
176
     1
 90
       50
176
     1
 62
   256
176
     0
 40
1.0
176
     0
 90
        2
176
     1
  1
strokes_ogs.tif
176
     1
290
     0
176
     1
 40
1.0
176
     1
 40
1.0
176
     1
  0
DICTIONARYVAR
  5
9BB
102
{ACAD_REACTORS
330
9BA
102
}
330
9BA
100
DictionaryVariables
280
     0
  1
1:1
  0
DICTIONARYVAR
  5
9C0
102
{ACAD_REACTORS
330
9BA
102
}
330
9BA
100
DictionaryVariables
280
     0
  1
Standard
  0
DICTIONARYVAR
  5
9BF
102
{ACAD_REACTORS
330
9BA
102
}
330
9BA
100
DictionaryVariables
280
     0
  1
Standard
  0
XRECORD
  5
7CE
102
{ACAD_REACTORS
330
7CC
102
}
330
7CC
100
AcDbXrecord
280
     1
1000
Weiss
  0
XRECORD
  5
7CF
102
{ACAD_REACTORS
330
7CC
102
}
330
7CC
100
AcDbXrecord
280
     1
1000
FullColor
  0
XRECORD
  5
7D0
102
{ACAD_REACTORS
330
7CC
102
}
330
7CC
100
AcDbXrecord
280
     1
290
     1
  0
XRECORD
  5
7D1
102
{ACAD_REACTORS
330
7CC
102
}
330
7CC
100
AcDbXrecord
280
     1
290
     1
  0
XRECORD
  5
7D2
102
{ACAD_REACTORS
330
7CC
102
}
330
7CC
100
AcDbXrecord
280
     1
290
     1
  0
XRECORD
  5
7D3
102
{ACAD_REACTORS
330
7CC
102
}
330
7CC
100
AcDbXrecord
280
     1
290
     1
  0
XRECORD
  5
7D4
102
{ACAD_REACTORS
330
7CC
102
}
330
7CC
100
AcDbXrecord
280
     1
1000
auto
  0
XRECORD
  5
7D5
102
{ACAD_REACTORS
330
7CC
102
}
330
7CC
100
AcDbXrecord
280
     1
1000
auto
  0
XRECORD
  5
7D6
102
{ACAD_REACTORS
330
7CC
102
}
330
7CC
100
AcDbXrecord
280
     1
1000
auto
  0
XRECORD
  5
7D7
102
{ACAD_REACTORS
330
7CC
102
}
330
7CC
100
AcDbXrecord
280
     1
1000
auto
  0
XRECORD
  5
7D8
102
{ACAD_REACTORS
330
7CC
102
}
330
7CC
100
AcDbXrecord
280
     1
1000
auto
  0
XRECORD
  5
7D9
102
{ACAD_REACTORS
330
7CC
102
}
330
7CC
100
AcDbXrecord
280
     1
1000
auto
  0
XRECORD
  5
7DA
102
{ACAD_REACTORS
330
7CC
102
}
330
7CC
100
AcDbXrecord
280
     1
1000
auto
  0
XRECORD
  5
7DB
102
{ACAD_REACTORS
330
7CC
102
}
330
7CC
100
AcDbXrecord
280
     1
1000
auto
  0
XRECORD
  5
7DC
102
{ACAD_REACTORS
330
7CC
102
}
330
7CC
100
AcDbXrecord
280
     1
290
     0
  0
XRECORD
  5
7DD
102
{ACAD_REACTORS
330
7CC
102
}
330
7CC
100
AcDbXrecord
280
     1
290
     0
  0
XRECORD
  5
7DE
102
{ACAD_REACTORS
330
7CC
102
}
330
7CC
100
AcDbXrecord
280
     1
290
     0
  0
XRECORD
  5
7DF
102
{ACAD_REACTORS
330
7CC
102
}
330
7CC
100
AcDbXrecord
280
     1
290
     0
  0
XRECORD
  5
7E0
102
{ACAD_REACTORS
330
7CC
102
}
330
7CC
100
AcDbXrecord
280
     1
 90
        0
  0
XRECORD
  5
7E1
102
{ACAD_REACTORS
330
7CC
102
}
330
7CC
100
AcDbXrecord
280
     1
 90
        0
  0
XRECORD
  5
7E2
102
{ACAD_REACTORS
330
7CC
102
}
330
7CC
100
AcDbXrecord
280
     1
 90
        0
  0
XRECORD
  5
7E3
102
{ACAD_REACTORS
330
7CC
102
}
330
7CC
100
AcDbXrecord
280
     1
 90
        0
  0
XRECORD
  5
7E4
102
{ACAD_REACTORS
330
7CC
102
}
330
7CC
100
AcDbXrecord
280
     1
1000
auto
  0
XRECORD
  5
7E5
102
{ACAD_REACTORS
330
7CC
102
}
330
7CC
100
AcDbXrecord
280
     1
1000
auto
  0
XRECORD
  5
7E6
102
{ACAD_REACTORS
330
7CC
102
}
330
7CC
100
AcDbXrecord
280
     1
1000
auto
  0
XRECORD
  5
7E7
102
{ACAD_REACTORS
330
7CC
102
}
330
7CC
100
AcDbXrecord
280
     1
1000
auto
  0
XRECORD
  5
7E8
102
{ACAD_REACTORS
330
7CC
102
}
330
7CC
100
AcDbXrecord
280
     1
1000
auto
  0
XRECORD
  5
7E9
102
{ACAD_REACTORS
330
7CC
102
}
330
7CC
100
AcDbXrecord
280
     1
1000
auto
  0
XRECORD
  5
7EA
102
{ACAD_REACTORS
330
7CC
102
}
330
7CC
100
AcDbXrecord
280
     1
1000
auto
  0
XRECORD
  5
7EB
102
{ACAD_REACTORS
330
7CC
102
}
330
7CC
100
AcDbXrecord
280
     1
1000
auto
  0
XRECORD
  5
7EC
102
{ACAD_REACTORS
330
7CC
102
}
330
7CC
100
AcDbXrecord
280
     1
 90
        1
  0
XRECORD
  5
7ED
102
{ACAD_REACTORS
330
7CC
102
}
330
7CC
100
AcDbXrecord
280
     1
 40
10.0
  0
XRECORD
  5
7EE
102
{ACAD_REACTORS
330
7CC
102
}
330
7CC
100
AcDbXrecord
280
     1
 40
10.0
  0
XRECORD
  5
7EF
102
{ACAD_REACTORS
330
7CC
102
}
330
7CC
100
AcDbXrecord
280
     1
 40
10.0
  0
XRECORD
  5
7F0
102
{ACAD_REACTORS
330
7CC
102
}
330
7CC
100
AcDbXrecord
280
     1
 40
10.0
  0
XRECORD
  5
7F1
102
{ACAD_REACTORS
330
7CC
102
}
330
7CC
100
AcDbXrecord
280
     1
290
     0
  0
XRECORD
  5
7F2
102
{ACAD_REACTORS
330
7CC
102
}
330
7CC
100
AcDbXrecord
280
     1
 90
        1
  0
XRECORD
  5
7F3
102
{ACAD_REACTORS
330
7CC
102
}
330
7CC
100
AcDbXrecord
280
     1
 40
0.0
  0
XRECORD
  5
7F4
102
{ACAD_REACTORS
330
7CC
102
}
330
7CC
100
AcDbXrecord
280
     1
 40
0.0
  0
XRECORD
  5
7F5
102
{ACAD_REACTORS
330
7CC
102
}
330
7CC
100
AcDbXrecord
280
     1
1000
Portrait
  0
XRECORD
  5
7F6
102
{ACAD_REACTORS
330
7CC
102
}
330
7CC
100
AcDbXrecord
280
     1
 40
297.0
  0
XRECORD
  5
7F7
102
{ACAD_REACTORS
330
7CC
102
}
330
7CC
100
AcDbXrecord
280
     1
 40
210.0
  0
XRECORD
  5
7F8
102
{ACAD_REACTORS
330
7CC
102
}
330
7CC
100
AcDbXrecord
280
     1
1000
1:1
  0
XRECORD
  5
7F9
102
{ACAD_REACTORS
330
7CC
102
}
330
7CC
100
AcDbXrecord
280
     1
290
     1
  0
XRECORD
  5
7FA
102
{ACAD_REACTORS
330
7CC
102
}
330
7CC
100
AcDbXrecord
280
     1
1000
3.11.0
  0
XRECORD
  5
7FB
102
{ACAD_REACTORS
330
7CC
102
}
330
7CC
100
AcDbXrecord
280
     1
 90
        4
  0
DICTIONARY
  5
9BC
330
7C7
100
AcDbDictionary
280
     1
281
     1
  3
ACAD_ROUNDTRIP_2008_TABLESTYLE_CELLSTYLEMAP
360
9BD
  0
CELLSTYLEMAP
  5
9BD
102
{ACAD_REACTORS
330
9BC
102
}
330
9BC
100
AcDbCellStyleMap
 90
        3
300
CELLSTYLE
  1
TABLEFORMAT_BEGIN
 90
        5
170
     1
 91
        0
 92
    32768
 62
   257
 93
        1
300
CONTENTFORMAT
  1
CONTENTFORMAT_BEGIN
 90
        0
 91
        0
 92
        4
 93
        0
300

 40
0.0
140
1.0
 94
        5
 62
     0
340
76F
144
0.25
309
CONTENTFORMAT_END
171
     1
301
MARGIN
  1
CELLMARGIN_BEGIN
 40
0.06
 40
0.06
 40
0.06
 40
0.06
 40
0.06
 40
0.06
309
CELLMARGIN_END
 94
        6
 95
        1
302
GRIDFORMAT
  1
GRIDFORMAT_BEGIN
 90
        0
 91
        1
 62
     0
 92
       -2
340
771
 93
        0
 40
0.045
309
GRIDFORMAT_END
 95
        2
302
GRIDFORMAT
  1
GRIDFORMAT_BEGIN
 90
        0
 91
        1
 62
     0
 92
       -2
340
771
 93
        0
 40
0.045
309
GRIDFORMAT_END
 95
        4
302
GRIDFORMAT
  1
GRIDFORMAT_BEGIN
 90
        0
 91
        1
 62
     0
 92
       -2
340
771
 93
        0
 40
0.045
309
GRIDFORMAT_END
 95
        8
302
GRIDFORMAT
  1
GRIDFORMAT_BEGIN
 90
        0
 91
        1
 62
     0
 92
       -2
340
771
 93
        0
 40
0.045
309
GRIDFORMAT_END
 95
       16
302
GRIDFORMAT
  1
GRIDFORMAT_BEGIN
 90
        0
 91
        1
 62
     0
 92
       -2
340
771
 93
        0
 40
0.045
309
GRIDFORMAT_END
 95
       32
302
GRIDFORMAT
  1
GRIDFORMAT_BEGIN
 90
        0
 91
        1
 62
     0
 92
       -2
340
771
 93
        0
 40
0.045
309
GRIDFORMAT_END
309
TABLEFORMAT_END
  1
CELLSTYLE_BEGIN
 90
        1
 91
        1
300
_TITLE
309
CELLSTYLE_END
300
CELLSTYLE
  1
TABLEFORMAT_BEGIN
 90
        5
170
     1
 91
        0
 92
        0
 62
   257
 93
        1
300
CONTENTFORMAT
  1
CONTENTFORMAT_BEGIN
 90
        0
 91
        0
 92
        4
 93
        0
300

 40
0.0
140
1.0
 94
        5
 62
     0
340
76F
144
0.18
309
CONTENTFORMAT_END
171
     1
301
MARGIN
  1
CELLMARGIN_BEGIN
 40
0.06
 40
0.06
 40
0.06
 40
0.06
 40
0.06
 40
0.06
309
CELLMARGIN_END
 94
        6
 95
        1
302
GRIDFORMAT
  1
GRIDFORMAT_BEGIN
 90
        0
 91
        1
 62
     0
 92
       -2
340
771
 93
        0
 40
0.045
309
GRIDFORMAT_END
 95
        2
302
GRIDFORMAT
  1
GRIDFORMAT_BEGIN
 90
        0
 91
        1
 62
     0
 92
       -2
340
771
 93
        0
 40
0.045
309
GRIDFORMAT_END
 95
        4
302
GRIDFORMAT
  1
GRIDFORMAT_BEGIN
 90
        0
 91
        1
 62
     0
 92
       -2
340
771
 93
        0
 40
0.045
309
GRIDFORMAT_END
 95
        8
302
GRIDFORMAT
  1
GRIDFORMAT_BEGIN
 90
        0
 91
        1
 62
     0
 92
       -2
340
771
 93
        0
 40
0.045
309
GRIDFORMAT_END
 95
       16
302
GRIDFORMAT
  1
GRIDFORMAT_BEGIN
 90
        0
 91
        1
 62
     0
 92
       -2
340
771
 93
        0
 40
0.045
309
GRIDFORMAT_END
 95
       32
302
GRIDFORMAT
  1
GRIDFORMAT_BEGIN
 90
        0
 91
        1
 62
     0
 92
       -2
340
771
 93
        0
 40
0.045
309
GRIDFORMAT_END
309
TABLEFORMAT_END
  1
CELLSTYLE_BEGIN
 90
        2
 91
        1
300
_HEADER
309
CELLSTYLE_END
300
CELLSTYLE
  1
TABLEFORMAT_BEGIN
 90
        5
170
     1
 91
        0
 92
        0
 62
   257
 93
        1
300
CONTENTFORMAT
  1
CONTENTFORMAT_BEGIN
 90
        0
 91
        0
 92
        4
 93
        0
300

 40
0.0
140
1.0
 94
        2
 62
     0
340
76F
144
0.18
309
CONTENTFORMAT_END
171
     1
301
MARGIN
  1
CELLMARGIN_BEGIN
 40
0.06
 40
0.06
 40
0.06
 40
0.06
 40
0.06
 40
0.06
309
CELLMARGIN_END
 94
        6
 95
        1
302
GRIDFORMAT
  1
GRIDFORMAT_BEGIN
 90
        0
 91
        1
 62
     0
 92
       -2
340
771
 93
        0
 40
0.045
309
GRIDFORMAT_END
 95
        2
302
GRIDFORMAT
  1
GRIDFORMAT_BEGIN
 90
        0
 91
        1
 62
     0
 92
       -2
340
771
 93
        0
 40
0.045
309
GRIDFORMAT_END
 95
        4
302
GRIDFORMAT
  1
GRIDFORMAT_BEGIN
 90
        0
 91
        1
 62
     0
 92
       -2
340
771
 93
        0
 40
0.045
309
GRIDFORMAT_END
 95
        8
302
GRIDFORMAT
  1
GRIDFORMAT_BEGIN
 90
        0
 91
        1
 62
     0
 92
       -2
340
771
 93
        0
 40
0.045
309
GRIDFORMAT_END
 95
       16
302
GRIDFORMAT
  1
GRIDFORMAT_BEGIN
 90
        0
 91
        1
 62
     0
 92
       -2
340
771
 93
        0
 40
0.045
309
GRIDFORMAT_END
 95
       32
302
GRIDFORMAT
  1
GRIDFORMAT_BEGIN
 90
        0
 91
        1
 62
     0
 92
       -2
340
771
 93
        0
 40
0.045
309
GRIDFORMAT_END
309
TABLEFORMAT_END
  1
CELLSTYLE_BEGIN
 90
        3
 91
        2
300
_DATA
309
CELLSTYLE_END
  0
ENDSEC
  0
EOF
