  0
SECTION
  2
HEADER
  9
$ACADVER
  1
AC1027
  9
$ACADMAINTVER
 70
     8
  9
$DWGCODEPAGE
  3
ANSI_1252
  9
$REQUIREDVERSIONS
160
                 0
  9
$INSBASE
 10
0.0
 20
0.0
 30
0.0
  9
$EXTMIN
 10
0.0
 20
0.0
 30
1.000000000000000E+20
  9
$EXTMAX
 10
210.0
 20
297.0
 30
-1.000000000000000E+20
  9
$LIMMIN
 10
0.0
 20
0.0
  9
$LIMMAX
 10
0.0
 20
0.0
  9
$ORTHOMODE
 70
     0
  9
$REGENMODE
 70
     1
  9
$FILLMODE
 70
     1
  9
$QTEXTMODE
 70
     0
  9
$MIRRTEXT
 70
     1
  9
$LTSCALE
 40
1.0
  9
$ATTMODE
 70
     1
  9
$TEXTSIZE
 40
1.0
  9
$TRACEWID
 40
0.05
  9
$TEXTSTYLE
  7
Standard
  9
$CLAYER
  8
0
  9
$CELTYPE
  6
ByLayer
  9
$CECOLOR
 62
   178
  9
$CELTSCALE
 40
1.0
  9
$DISPSILH
 70
     0
  9
$DIMSCALE
 40
1.0
  9
$DIMASZ
 40
0.125
  9
$DIMEXO
 40
0.0625
  9
$DIMDLI
 40
0.25
  9
$DIMRND
 40
0.0
  9
$DIMDLE
 40
0.0
  9
$DIMEXE
 40
0.125
  9
$DIMTP
 40
0.005
  9
$DIMTM
 40
-0.005
  9
$DIMTXT
 40
3.0
  9
$DIMCEN
 40
0.09
  9
$DIMTSZ
 40
0.0
  9
$DIMTOL
 70
     0
  9
$DIMLIM
 70
     0
  9
$DIMTIH
 70
     1
  9
$DIMTOH
 70
     1
  9
$DIMSE1
 70
     0
  9
$DIMSE2
 70
     0
  9
$DIMTAD
 70
     0
  9
$DIMZIN
 70
     0
  9
$DIMBLK
  1

  9
$DIMASO
 70
     1
  9
$DIMSHO
 70
     1
  9
$DIMPOST
  1

  9
$DIMAPOST
  1

  9
$DIMALT
 70
     0
  9
$DIMALTD
 70
     0
  9
$DIMALTF
 40
25.4
  9
$DIMLFAC
 40
1.0
  9
$DIMTOFL
 70
     1
  9
$DIMTVP
 40
0.0
  9
$DIMTIX
 70
     0
  9
$DIMSOXD
 70
     0
  9
$DIMSAH
 70
     0
  9
$DIMBLK1
  1

  9
$DIMBLK2
  1

  9
$DIMSTYLE
  2
Standard
  9
$DIMCLRD
 70
   178
  9
$DIMCLRE
 70
   178
  9
$DIMCLRT
 70
   178
  9
$DIMTFAC
 40
1.0
  9
$DIMGAP
 40
0.0625
  9
$DIMJUST
 70
     0
  9
$DIMSD1
 70
     0
  9
$DIMSD2
 70
     0
  9
$DIMTOLJ
 70
     1
  9
$DIMTZIN
 70
     0
  9
$DIMALTZ
 70
     0
  9
$DIMALTTZ
 70
     0
  9
$DIMUPT
 70
     0
  9
$DIMDEC
 70
     3
  9
$DIMTDEC
 70
     3
  9
$DIMALTU
 70
     2
  9
$DIMALTTD
 70
     2
  9
$DIMTXSTY
  7
Standard
  9
$DIMAUNIT
 70
     0
  9
$DIMADEC
 70
     0
  9
$DIMALTRND
 40
0.0
  9
$DIMAZIN
 70
     0
  9
$DIMDSEP
 70
    46
  9
$DIMATFIT
 70
     3
  9
$DIMFRAC
 70
     0
  9
$DIMLDRBLK
  1

  9
$DIMLUNIT
 70
     2
  9
$DIMLWD
 70
    -2
  9
$DIMLWE
 70
    -2
  9
$DIMTMOVE
 70
     0
  9
$DIMFXL
 40
1.0
  9
$DIMFXLON
 70
     0
  9
$DIMJOGANG
 40
0.7853981633974483
  9
$DIMTFILL
 70
     0
  9
$DIMTFILLCLR
 70
     0
  9
$DIMARCSYM
 70
     0
  9
$DIMLTYPE
  6

  9
$DIMLTEX1
  6

  9
$DIMLTEX2
  6

  9
$DIMTXTDIRECTION
 70
     0
  9
$LUNITS
 70
     2
  9
$LUPREC
 70
     3
  9
$SKETCHINC
 40
0.1
  9
$FILLETRAD
 40
10.0
  9
$AUNITS
 70
     0
  9
$AUPREC
 70
     1
  9
$MENU
  1
.
  9
$ELEVATION
 40
0.0
  9
$PELEVATION
 40
0.0
  9
$THICKNESS
 40
0.0
  9
$LIMCHECK
 70
     0
  9
$CHAMFERA
 40
6.0
  9
$CHAMFERB
 40
6.0
  9
$CHAMFERC
 40
0.0
  9
$CHAMFERD
 40
0.0
  9
$SKPOLY
 70
     0
  9
$TDCREATE
 40
2457357.735717593
  9
$TDUCREATE
 40
2457357.694050926
  9
$TDUPDATE
 40
2457357.735717593
  9
$TDUUPDATE
 40
2457357.694050926
  9
$TDINDWG
 40
0.0000000116
  9
$TDUSRTIMER
 40
0.0000000116
  9
$USRTIMER
 70
     1
  9
$ANGBASE
 50
0.0
  9
$ANGDIR
 70
     0
  9
$PDMODE
 70
     2
  9
$PDSIZE
 40
-0.01
  9
$PLINEWID
 40
0.0
  9
$SPLFRAME
 70
     0
  9
$SPLINETYPE
 70
     6
  9
$SPLINESEGS
 70
     8
  9
$HANDSEED
  5
16E4
  9
$SURFTAB1
 70
     6
  9
$SURFTAB2
 70
     6
  9
$SURFTYPE
 70
     6
  9
$SURFU
 70
     6
  9
$SURFV
 70
     6
  9
$UCSBASE
  2

  9
$UCSNAME
  2

  9
$UCSORG
 10
0.0
 20
0.0
 30
0.0
  9
$UCSXDIR
 10
1.0
 20
0.0
 30
0.0
  9
$UCSYDIR
 10
0.0
 20
1.0
 30
0.0
  9
$UCSORTHOREF
  2

  9
$UCSORTHOVIEW
 70
     0
  9
$UCSORGTOP
 10
0.0
 20
0.0
 30
0.0
  9
$UCSORGBOTTOM
 10
0.0
 20
0.0
 30
0.0
  9
$UCSORGLEFT
 10
0.0
 20
0.0
 30
0.0
  9
$UCSORGRIGHT
 10
0.0
 20
0.0
 30
0.0
  9
$UCSORGFRONT
 10
0.0
 20
0.0
 30
0.0
  9
$UCSORGBACK
 10
0.0
 20
0.0
 30
0.0
  9
$PUCSBASE
  2

  9
$PUCSNAME
  2

  9
$PUCSORG
 10
0.0
 20
0.0
 30
0.0
  9
$PUCSXDIR
 10
1.0
 20
0.0
 30
0.0
  9
$PUCSYDIR
 10
0.0
 20
1.0
 30
0.0
  9
$PUCSORTHOREF
  2

  9
$PUCSORTHOVIEW
 70
     0
  9
$PUCSORGTOP
 10
0.0
 20
0.0
 30
0.0
  9
$PUCSORGBOTTOM
 10
0.0
 20
0.0
 30
0.0
  9
$PUCSORGLEFT
 10
0.0
 20
0.0
 30
0.0
  9
$PUCSORGRIGHT
 10
0.0
 20
0.0
 30
0.0
  9
$PUCSORGFRONT
 10
0.0
 20
0.0
 30
0.0
  9
$PUCSORGBACK
 10
0.0
 20
0.0
 30
0.0
  9
$USERI1
 70
     0
  9
$USERI2
 70
     0
  9
$USERI3
 70
     0
  9
$USERI4
 70
     0
  9
$USERI5
 70
     0
  9
$USERR1
 40
0.0
  9
$USERR2
 40
0.0
  9
$USERR3
 40
0.0
  9
$USERR4
 40
0.0
  9
$USERR5
 40
0.0
  9
$WORLDVIEW
 70
     1
  9
$SHADEDGE
 70
     3
  9
$SHADEDIF
 70
    70
  9
$TILEMODE
 70
     1
  9
$MAXACTVP
 70
    16
  9
$PINSBASE
 10
0.0
 20
0.0
 30
0.0
  9
$PLIMCHECK
 70
     0
  9
$PEXTMIN
 10
0.0
 20
0.0
 30
0.0
  9
$PEXTMAX
 10
210.0
 20
297.0
 30
0.0
  9
$PLIMMIN
 10
0.0
 20
0.0
  9
$PLIMMAX
 10
210.0
 20
297.0
  9
$UNITMODE
 70
     0
  9
$VISRETAIN
 70
     0
  9
$PLINEGEN
 70
     1
  9
$PSLTSCALE
 70
     0
  9
$TREEDEPTH
 70
  3020
  9
$CMLSTYLE
  2
Standard
  9
$CMLJUST
 70
     0
  9
$CMLSCALE
 40
1.0
  9
$PROXYGRAPHICS
 70
     1
  9
$MEASUREMENT
 70
     1
  9
$CELWEIGHT
370
    -1
  9
$ENDCAPS
280
     0
  9
$JOINSTYLE
280
     0
  9
$LWDISPLAY
290
     0
  9
$INSUNITS
 70
     0
  9
$HYPERLINKBASE
  1

  9
$STYLESHEET
  1

  9
$XEDIT
290
     1
  9
$CEPSNTYPE
380
     0
  9
$PSTYLEMODE
290
     1
  9
$FINGERPRINTGUID
  2
{A367E0DD-F931-31DC-8C25-F3656203798A}
  9
$VERSIONGUID
  2
{FAEB1C32-E019-11D5-929B-00C0DF256EC4}
  9
$EXTNAMES
290
     1
  9
$PSVPSCALE
 40
0.0
  9
$OLESTARTUP
290
     0
  9
$SORTENTS
280
   127
  9
$INDEXCTL
280
     0
  9
$HIDETEXT
280
     1
  9
$XCLIPFRAME
280
     2
  9
$HALOGAP
280
     0
  9
$OBSCOLOR
 70
   257
  9
$OBSLTYPE
280
     0
  9
$INTERSECTIONDISPLAY
280
     0
  9
$INTERSECTIONCOLOR
 70
   257
  9
$DIMASSOC
280
     2
  9
$PROJECTNAME
  1

  9
$CAMERADISPLAY
290
     0
  9
$LENSLENGTH
 40
50.0
  9
$CAMERAHEIGHT
 40
0.0
  9
$STEPSPERSEC
 40
2.0
  9
$STEPSIZE
 40
6.0
  9
$3DDWFPREC
 40
2.0
  9
$PSOLWIDTH
 40
0.25
  9
$PSOLHEIGHT
 40
4.0
  9
$LOFTANG1
 40
1.570796326794897
  9
$LOFTANG2
 40
1.570796326794897
  9
$LOFTMAG1
 40
0.0
  9
$LOFTMAG2
 40
0.0
  9
$LOFTPARAM
 70
     7
  9
$LOFTNORMALS
280
     1
  9
$LATITUDE
 40
37.795
  9
$LONGITUDE
 40
-122.394
  9
$NORTHDIRECTION
 40
0.0
  9
$TIMEZONE
 70
 -8000
  9
$LIGHTGLYPHDISPLAY
280
     1
  9
$TILEMODELIGHTSYNCH
280
     1
  9
$CMATERIAL
347
156F
  9
$SOLIDHIST
280
     0
  9
$SHOWHIST
280
     1
  9
$DWFFRAME
280
     2
  9
$DGNFRAME
280
     2
  9
$REALWORLDSCALE
290
     1
  9
$INTERFERECOLOR
 62
   256
  9
$CSHADOW
280
     0
  9
$SHADOWPLANELOCATION
 40
0.0
  0
ENDSEC
  0
SECTION
  2
CLASSES
  0
CLASS
  1
ACDBDICTIONARYWDFLT
  2
AcDbDictionaryWithDefault
  3
ObjectDBX Classes
 90
        0
 91
        4
280
     0
281
     0
  0
CLASS
  1
VISUALSTYLE
  2
AcDbVisualStyle
  3
ObjectDBX Classes
 90
     4095
 91
        4
280
     0
281
     0
  0
CLASS
  1
MATERIAL
  2
AcDbMaterial
  3
ObjectDBX Classes
 90
     1153
 91
        4
280
     0
281
     0
  0
CLASS
  1
SCALE
  2
AcDbScale
  3
ObjectDBX Classes
 90
     1153
 91
        4
280
     0
281
     0
  0
CLASS
  1
TABLESTYLE
  2
AcDbTableStyle
  3
ObjectDBX Classes
 90
     4095
 91
        4
280
     0
281
     0
  0
CLASS
  1
MLEADERSTYLE
  2
AcDbMLeaderStyle
  3
ACDB_MLEADERSTYLE_CLASS
 90
     4095
 91
        4
280
     0
281
     0
  0
CLASS
  1
SUN
  2
AcDbSun
  3
SCENEOE
 90
     1153
 91
        4
280
     0
281
     0
  0
CLASS
  1
DICTIONARYVAR
  2
AcDbDictionaryVar
  3
ObjectDBX Classes
 90
        0
 91
        4
280
     0
281
     0
  0
CLASS
  1
CELLSTYLEMAP
  2
AcDbCellStyleMap
  3
ObjectDBX Classes
 90
     1152
 91
        4
280
     0
281
     0
  0
ENDSEC
  0
SECTION
  2
TABLES
  0
TABLE
  2
VPORT
  5
1534
330
0
100
AcDbSymbolTable
 70
     1
  0
VPORT
  5
1554
330
1534
100
AcDbSymbolTableRecord
100
AcDbViewportTableRecord
  2
*Active
 70
     0
 10
0.0
 20
0.0
 11
1.0
 21
1.0
 12
10.42990654205607
 22
4.5
 13
0.0
 23
0.0
 14
0.5
 24
0.5
 15
0.5
 25
0.5
 16
0.0
 26
0.0
 36
1.0
 17
0.0
 27
0.0
 37
0.0
 40
9.0
 41
1.972972972850329
 42
50.0
 43
0.0
 44
0.0
 50
0.0
 51
0.0
 71
     0
 72
   100
 73
     1
 74
     3
 75
     0
 76
     0
 77
     0
 78
     0
281
     0
 65
     1
110
0.0
120
0.0
130
0.0
111
1.0
121
0.0
131
0.0
112
0.0
122
1.0
132
0.0
 79
     0
146
0.0
 60
     3
 61
     5
292
     1
282
     1
141
0.0
142
0.0
 63
   250
361
1598
  0
ENDTAB
  0
TABLE
  2
LTYPE
  5
1531
330
0
100
AcDbSymbolTable
 70
    71
  0
LTYPE
  5
153F
330
1531
100
AcDbSymbolTableRecord
100
AcDbLinetypeTableRecord
  2
ByBlock
 70
     0
  3

 72
    65
 73
     0
 40
0.0
  0
LTYPE
  5
1540
330
1531
100
AcDbSymbolTableRecord
100
AcDbLinetypeTableRecord
  2
ByLayer
 70
     0
  3

 72
    65
 73
     0
 40
0.0
  0
LTYPE
  5
1541
330
1531
100
AcDbSymbolTableRecord
100
AcDbLinetypeTableRecord
  2
Continuous
 70
     0
  3
Solid line
 72
    65
 73
     0
 40
0.0
  0
LTYPE
  5
15CC
330
1531
100
AcDbSymbolTableRecord
100
AcDbLinetypeTableRecord
  2
ACAD_ISO02W100
 70
     0
  3
ISO dash __ __ __ __ __ __ __ __ __ __ __ __ __
 72
    65
 73
     2
 40
15.0
 49
12.0
 74
     0
 49
-3.0
 74
     0
  0
LTYPE
  5
15CD
330
1531
100
AcDbSymbolTableRecord
100
AcDbLinetypeTableRecord
  2
ACAD_ISO03W100
 70
     0
  3
ISO dash space __    __    __    __    __    __
 72
    65
 73
     2
 40
30.0
 49
12.0
 74
     0
 49
-18.0
 74
     0
  0
LTYPE
  5
15CE
330
1531
100
AcDbSymbolTableRecord
100
AcDbLinetypeTableRecord
  2
ACAD_ISO04W100
 70
     0
  3
ISO long-dash dot ____ . ____ . ____ . ____ . _
 72
    65
 73
     4
 40
30.0
 49
24.0
 74
     0
 49
-3.0
 74
     0
 49
0.0
 74
     0
 49
-3.0
 74
     0
  0
LTYPE
  5
15CF
330
1531
100
AcDbSymbolTableRecord
100
AcDbLinetypeTableRecord
  2
ACAD_ISO05W100
 70
     0
  3
ISO long-dash double-dot ____ .. ____ .. ____ . 
 72
    65
 73
     6
 40
33.0
 49
24.0
 74
     0
 49
-3.0
 74
     0
 49
0.0
 74
     0
 49
-3.0
 74
     0
 49
0.0
 74
     0
 49
-3.0
 74
     0
  0
LTYPE
  5
15D0
330
1531
100
AcDbSymbolTableRecord
100
AcDbLinetypeTableRecord
  2
ACAD_ISO06W100
 70
     0
  3
ISO long-dash triple-dot ____ ... ____ ... ____
 72
    65
 73
     8
 40
36.0
 49
24.0
 74
     0
 49
-3.0
 74
     0
 49
0.0
 74
     0
 49
-3.0
 74
     0
 49
0.0
 74
     0
 49
-3.0
 74
     0
 49
0.0
 74
     0
 49
-3.0
 74
     0
  0
LTYPE
  5
15D1
330
1531
100
AcDbSymbolTableRecord
100
AcDbLinetypeTableRecord
  2
ACAD_ISO07W100
 70
     0
  3
ISO dot . . . . . . . . . . . . . . . . . . . . 
 72
    65
 73
     2
 40
3.0
 49
0.0
 74
     0
 49
-3.0
 74
     0
  0
LTYPE
  5
15D2
330
1531
100
AcDbSymbolTableRecord
100
AcDbLinetypeTableRecord
  2
ACAD_ISO08W100
 70
     0
  3
ISO long-dash short-dash ____ __ ____ __ ____ _
 72
    65
 73
     4
 40
36.0
 49
24.0
 74
     0
 49
-3.0
 74
     0
 49
6.0
 74
     0
 49
-3.0
 74
     0
  0
LTYPE
  5
15D3
330
1531
100
AcDbSymbolTableRecord
100
AcDbLinetypeTableRecord
  2
ACAD_ISO09W100
 70
     0
  3
ISO long-dash double-short-dash ____ __ __ ____
 72
    65
 73
     6
 40
45.0
 49
24.0
 74
     0
 49
-3.0
 74
     0
 49
6.0
 74
     0
 49
-3.0
 74
     0
 49
6.0
 74
     0
 49
-3.0
 74
     0
  0
LTYPE
  5
15D4
330
1531
100
AcDbSymbolTableRecord
100
AcDbLinetypeTableRecord
  2
ACAD_ISO10W100
 70
     0
  3
ISO dash dot __ . __ . __ . __ . __ . __ . __ . 
 72
    65
 73
     4
 40
18.0
 49
12.0
 74
     0
 49
-3.0
 74
     0
 49
0.0
 74
     0
 49
-3.0
 74
     0
  0
LTYPE
  5
15D5
330
1531
100
AcDbSymbolTableRecord
100
AcDbLinetypeTableRecord
  2
ACAD_ISO11W100
 70
     0
  3
ISO double-dash dot __ __ . __ __ . __ __ . __ _
 72
    65
 73
     6
 40
33.0
 49
12.0
 74
     0
 49
-3.0
 74
     0
 49
12.0
 74
     0
 49
-3.0
 74
     0
 49
0.0
 74
     0
 49
-3.0
 74
     0
  0
LTYPE
  5
15D6
330
1531
100
AcDbSymbolTableRecord
100
AcDbLinetypeTableRecord
  2
ACAD_ISO12W100
 70
     0
  3
ISO dash double-dot __ . . __ . . __ . . __ . . 
 72
    65
 73
     6
 40
21.0
 49
12.0
 74
     0
 49
-3.0
 74
     0
 49
0.0
 74
     0
 49
-3.0
 74
     0
 49
0.0
 74
     0
 49
-3.0
 74
     0
  0
LTYPE
  5
15D7
330
1531
100
AcDbSymbolTableRecord
100
AcDbLinetypeTableRecord
  2
ACAD_ISO13W100
 70
     0
  3
ISO double-dash double-dot __ __ . . __ __ . . _
 72
    65
 73
     8
 40
36.0
 49
12.0
 74
     0
 49
-3.0
 74
     0
 49
12.0
 74
     0
 49
-3.0
 74
     0
 49
0.0
 74
     0
 49
-3.0
 74
     0
 49
0.0
 74
     0
 49
-3.0
 74
     0
  0
LTYPE
  5
15D8
330
1531
100
AcDbSymbolTableRecord
100
AcDbLinetypeTableRecord
  2
ACAD_ISO14W100
 70
     0
  3
ISO dash triple-dot __ . . . __ . . . __ . . . _
 72
    65
 73
     8
 40
24.0
 49
12.0
 74
     0
 49
-3.0
 74
     0
 49
0.0
 74
     0
 49
-3.0
 74
     0
 49
0.0
 74
     0
 49
-3.0
 74
     0
 49
0.0
 74
     0
 49
-3.0
 74
     0
  0
LTYPE
  5
15D9
330
1531
100
AcDbSymbolTableRecord
100
AcDbLinetypeTableRecord
  2
ACAD_ISO15W100
 70
     0
  3
ISO double-dash triple-dot __ __ . . . __ __ . .
 72
    65
 73
    10
 40
39.0
 49
12.0
 74
     0
 49
-3.0
 74
     0
 49
12.0
 74
     0
 49
-3.0
 74
     0
 49
0.0
 74
     0
 49
-3.0
 74
     0
 49
0.0
 74
     0
 49
-3.0
 74
     0
 49
0.0
 74
     0
 49
-3.0
 74
     0
  0
LTYPE
  5
15DC
330
1531
100
AcDbSymbolTableRecord
100
AcDbLinetypeTableRecord
  2
BATTING
 70
     0
  3
Batting SSSSSSSSSSSSSSSSSSSSSSSSSSSSSSSSSSSSSSSSSSSSSSS
 72
    65
 73
     4
 40
10.16254
 49
0.00254
 74
     0
 49
-2.54
 74
     2
 75
     0
340
15DA
 46
2.54
 50
0.0
 44
-2.54
 45
0.0
  9
BAT
 49
-5.08
 74
     2
 75
     0
340
15DB
 46
2.54
 50
180.0
 44
2.54
 45
0.0
  9
BAT
 49
-2.54
 74
     0
  0
LTYPE
  5
15DD
330
1531
100
AcDbSymbolTableRecord
100
AcDbLinetypeTableRecord
  2
BORDER
 70
     0
  3
Border __ __ . __ __ . __ __ . __ __ . __ __ .
 72
    65
 73
     6
 40
44.45
 49
12.7
 74
     0
 49
-6.35
 74
     0
 49
12.7
 74
     0
 49
-6.35
 74
     0
 49
0.0
 74
     0
 49
-6.35
 74
     0
  0
LTYPE
  5
15DE
330
1531
100
AcDbSymbolTableRecord
100
AcDbLinetypeTableRecord
  2
BORDER2
 70
     0
  3
Border (.5x) __.__.__.__.__.__.__.__.__.__.__.
 72
    65
 73
     6
 40
22.225
 49
6.35
 74
     0
 49
-3.175
 74
     0
 49
6.35
 74
     0
 49
-3.175
 74
     0
 49
0.0
 74
     0
 49
-3.175
 74
     0
  0
LTYPE
  5
15DF
330
1531
100
AcDbSymbolTableRecord
100
AcDbLinetypeTableRecord
  2
BORDERX2
 70
     0
  3
Border (2x) ____  ____  .  ____  ____  .  ___
 72
    65
 73
     6
 40
88.89999999999999
 49
25.4
 74
     0
 49
-12.7
 74
     0
 49
25.4
 74
     0
 49
-12.7
 74
     0
 49
0.0
 74
     0
 49
-12.7
 74
     0
  0
LTYPE
  5
15E0
330
1531
100
AcDbSymbolTableRecord
100
AcDbLinetypeTableRecord
  2
CENTER
 70
     0
  3
Center ____ _ ____ _ ____ _ ____ _ ____ _ ____
 72
    65
 73
     4
 40
50.8
 49
31.75
 74
     0
 49
-6.35
 74
     0
 49
6.35
 74
     0
 49
-6.35
 74
     0
  0
LTYPE
  5
15E1
330
1531
100
AcDbSymbolTableRecord
100
AcDbLinetypeTableRecord
  2
CENTER2
 70
     0
  3
Center (.5x) ___ _ ___ _ ___ _ ___ _ ___ _ ___
 72
    65
 73
     4
 40
28.575
 49
19.05
 74
     0
 49
-3.175
 74
     0
 49
3.175
 74
     0
 49
-3.175
 74
     0
  0
LTYPE
  5
15E2
330
1531
100
AcDbSymbolTableRecord
100
AcDbLinetypeTableRecord
  2
CENTERX2
 70
     0
  3
Center (2x) ________  __  ________  __  _____
 72
    65
 73
     4
 40
101.6
 49
63.5
 74
     0
 49
-12.7
 74
     0
 49
12.7
 74
     0
 49
-12.7
 74
     0
  0
LTYPE
  5
15E3
330
1531
100
AcDbSymbolTableRecord
100
AcDbLinetypeTableRecord
  2
DASHDOT
 70
     0
  3
Dash dot __ . __ . __ . __ . __ . __ . __ . __
 72
    65
 73
     4
 40
25.4
 49
12.7
 74
     0
 49
-6.35
 74
     0
 49
0.0
 74
     0
 49
-6.35
 74
     0
  0
LTYPE
  5
15E4
330
1531
100
AcDbSymbolTableRecord
100
AcDbLinetypeTableRecord
  2
DASHDOT2
 70
     0
  3
Dash dot (.5x) _._._._._._._._._._._._._._._.
 72
    65
 73
     4
 40
12.7
 49
6.35
 74
     0
 49
-3.175
 74
     0
 49
0.0
 74
     0
 49
-3.175
 74
     0
  0
LTYPE
  5
15E5
330
1531
100
AcDbSymbolTableRecord
100
AcDbLinetypeTableRecord
  2
DASHDOTX2
 70
     0
  3
Dash dot (2x) ____  .  ____  .  ____  .  ___
 72
    65
 73
     4
 40
50.8
 49
25.4
 74
     0
 49
-12.7
 74
     0
 49
0.0
 74
     0
 49
-12.7
 74
     0
  0
LTYPE
  5
15E6
330
1531
100
AcDbSymbolTableRecord
100
AcDbLinetypeTableRecord
  2
DASHED
 70
     0
  3
Dashed __ __ __ __ __ __ __ __ __ __ __ __ __ _
 72
    65
 73
     2
 40
19.05
 49
12.7
 74
     0
 49
-6.35
 74
     0
  0
LTYPE
  5
15E7
330
1531
100
AcDbSymbolTableRecord
100
AcDbLinetypeTableRecord
  2
DASHED2
 70
     0
  3
Dashed (.5x) _ _ _ _ _ _ _ _ _ _ _ _ _ _ _ _ _ 
 72
    65
 73
     2
 40
9.524999999999999
 49
6.35
 74
     0
 49
-3.175
 74
     0
  0
LTYPE
  5
15E8
330
1531
100
AcDbSymbolTableRecord
100
AcDbLinetypeTableRecord
  2
DASHEDX2
 70
     0
  3
Dashed (2x) ____  ____  ____  ____  ____  ___
 72
    65
 73
     2
 40
38.09999999999999
 49
25.4
 74
     0
 49
-12.7
 74
     0
  0
LTYPE
  5
15E9
330
1531
100
AcDbSymbolTableRecord
100
AcDbLinetypeTableRecord
  2
DIVIDE
 70
     0
  3
Divide ____ . . ____ . . ____ . . ____ . . ____
 72
    65
 73
     6
 40
31.75
 49
12.7
 74
     0
 49
-6.35
 74
     0
 49
0.0
 74
     0
 49
-6.35
 74
     0
 49
0.0
 74
     0
 49
-6.35
 74
     0
  0
LTYPE
  5
15EA
330
1531
100
AcDbSymbolTableRecord
100
AcDbLinetypeTableRecord
  2
DIVIDE2
 70
     0
  3
Divide (.5x) __..__..__..__..__..__..__..__.._
 72
    65
 73
     6
 40
15.875
 49
6.35
 74
     0
 49
-3.175
 74
     0
 49
0.0
 74
     0
 49
-3.175
 74
     0
 49
0.0
 74
     0
 49
-3.175
 74
     0
  0
LTYPE
  5
15EB
330
1531
100
AcDbSymbolTableRecord
100
AcDbLinetypeTableRecord
  2
DIVIDEX2
 70
     0
  3
Divide (2x) ________  .  .  ________  .  .  _
 72
    65
 73
     6
 40
63.5
 49
25.4
 74
     0
 49
-12.7
 74
     0
 49
0.0
 74
     0
 49
-12.7
 74
     0
 49
0.0
 74
     0
 49
-12.7
 74
     0
  0
LTYPE
  5
15EC
330
1531
100
AcDbSymbolTableRecord
100
AcDbLinetypeTableRecord
  2
DOT
 70
     0
  3
Dot . . . . . . . . . . . . . . . . . . . . . . . .
 72
    65
 73
     2
 40
6.35
 49
0.0
 74
     0
 49
-6.35
 74
     0
  0
LTYPE
  5
15ED
330
1531
100
AcDbSymbolTableRecord
100
AcDbLinetypeTableRecord
  2
DOT2
 70
     0
  3
Dot (.5x) ........................................
 72
    65
 73
     2
 40
3.175
 49
0.0
 74
     0
 49
-3.175
 74
     0
  0
LTYPE
  5
15EE
330
1531
100
AcDbSymbolTableRecord
100
AcDbLinetypeTableRecord
  2
DOTX2
 70
     0
  3
Dot (2x) .  .  .  .  .  .  .  .  .  .  .  .  .  .
 72
    65
 73
     2
 40
12.7
 49
0.0
 74
     0
 49
-12.7
 74
     0
  0
LTYPE
  5
15F0
330
1531
100
AcDbSymbolTableRecord
100
AcDbLinetypeTableRecord
  2
DRAINAGE
 70
     0
  3
Drainage ---->---->---->----
 72
    65
 73
     2
 40
10.16
 49
5.08
 74
     2
 75
     0
340
15EF
 46
2.54
 50
180.0
 44
0.0
 45
0.0
  9
RIGHT_ARROW
 49
5.08
 74
     0
  0
LTYPE
  5
15F2
330
1531
100
AcDbSymbolTableRecord
100
AcDbLinetypeTableRecord
  2
DRAINAGE2
 70
     0
  3
Drainage reversed----<----<----<----
 72
    65
 73
     2
 40
10.16
 49
5.08
 74
     2
 75
     0
340
15F1
 46
2.54
 50
0.0
 44
0.0
 45
0.0
  9
RIGHT_ARROW
 49
5.08
 74
     0
  0
LTYPE
  5
15F4
330
1531
100
AcDbSymbolTableRecord
100
AcDbLinetypeTableRecord
  2
FENCELINE1
 70
     0
  3
Fenceline circle ----0-----0----0-----0----0-----0--
 72
    65
 73
     4
 40
36.83
 49
6.35
 74
     0
 49
-2.54
 74
     2
 75
     0
340
15F3
 46
2.54
 50
0.0
 44
-2.54
 45
0.0
  9
CIRC1
 49
-2.54
 74
     0
 49
25.4
 74
     0
  0
LTYPE
  5
15F6
330
1531
100
AcDbSymbolTableRecord
100
AcDbLinetypeTableRecord
  2
FENCELINE2
 70
     0
  3
Fenceline square ----[]-----[]----[]-----[]----[]---
 72
    65
 73
     4
 40
36.83
 49
6.35
 74
     0
 49
-2.54
 74
     2
 75
     0
340
15F5
 46
2.54
 50
0.0
 44
-2.54
 45
0.0
  9
BOX
 49
-2.54
 74
     0
 49
25.4
 74
     0
  0
LTYPE
  5
15F8
330
1531
100
AcDbSymbolTableRecord
100
AcDbLinetypeTableRecord
  2
GAS_LINE
 70
     0
  3
Gas line ----GAS----GAS----GAS----GAS----GAS----GAS--
 72
    65
 73
     3
 40
24.13
 49
12.7
 74
     0
 49
-5.08
 74
     2
 75
     0
340
15F7
 46
2.54
 50
0.0
 44
-2.54
 45
-1.27
  9
GAS
 49
-6.35
 74
     0
  0
LTYPE
  5
15F9
330
1531
100
AcDbSymbolTableRecord
100
AcDbLinetypeTableRecord
  2
HIDDEN
 70
     0
  3
_ 
 72
    65
 73
     3
 40
4.5
 49
1.5
 74
     0
 49
-1.5
 74
     0
 49
1.5
 74
     0
  0
LTYPE
  5
15FA
330
1531
100
AcDbSymbolTableRecord
100
AcDbLinetypeTableRecord
  2
HIDDEN2
 70
     0
  3
Hidden (.5x) _ _ _ _ _ _ _ _ _ _ _ _ _ _ _ _ _ 
 72
    65
 73
     2
 40
4.762499999999999
 49
3.175
 74
     0
 49
-1.5875
 74
     0
  0
LTYPE
  5
15FB
330
1531
100
AcDbSymbolTableRecord
100
AcDbLinetypeTableRecord
  2
HIDDENX2
 70
     0
  3
Hidden (2x) ____ ____ ____ ____ ____ ____ ____ 
 72
    65
 73
     2
 40
19.05
 49
12.7
 74
     0
 49
-6.35
 74
     0
  0
LTYPE
  5
15FD
330
1531
100
AcDbSymbolTableRecord
100
AcDbLinetypeTableRecord
  2
HOT_WATER_SUPPLY
 70
     0
  3
Hot water supply ---- HW ---- HW ---- HW ----
 72
    65
 73
     3
 40
22.86
 49
12.7
 74
     0
 49
-5.08
 74
     2
 75
     0
340
15FC
 46
2.54
 50
0.0
 44
-2.54
 45
-1.27
  9
HW
 49
-5.08
 74
     0
  0
LTYPE
  5
15FE
330
1531
100
AcDbSymbolTableRecord
100
AcDbLinetypeTableRecord
  2
PHANTOM
 70
     0
  3
_ 
 72
    65
 73
     7
 40
29.5
 49
9.5
 74
     0
 49
-1.5
 74
     0
 49
3.0
 74
     0
 49
-1.5
 74
     0
 49
3.0
 74
     0
 49
-1.5
 74
     0
 49
9.5
 74
     0
  0
LTYPE
  5
15FF
330
1531
100
AcDbSymbolTableRecord
100
AcDbLinetypeTableRecord
  2
PHANTOM2
 70
     0
  3
Phantom (.5x) ___ _ _ ___ _ _ ___ _ _ ___ _ _
 72
    65
 73
     6
 40
31.75
 49
15.875
 74
     0
 49
-3.175
 74
     0
 49
3.175
 74
     0
 49
-3.175
 74
     0
 49
3.175
 74
     0
 49
-3.175
 74
     0
  0
LTYPE
  5
1600
330
1531
100
AcDbSymbolTableRecord
100
AcDbLinetypeTableRecord
  2
PHANTOMX2
 70
     0
  3
Phantom (2x) ____________    ____    ____   _
 72
    65
 73
     6
 40
127.0
 49
63.5
 74
     0
 49
-12.7
 74
     0
 49
12.7
 74
     0
 49
-12.7
 74
     0
 49
12.7
 74
     0
 49
-12.7
 74
     0
  0
LTYPE
  5
1602
330
1531
100
AcDbSymbolTableRecord
100
AcDbLinetypeTableRecord
  2
TRACKS
 70
     0
  3
Tracks -|-|-|-|-|-|-|-|-|-|-|-|-|-|-|-|-|-|-|-|-|-|-|-|-
 72
    65
 73
     2
 40
7.62
 49
3.81
 74
     2
 75
     0
340
1601
 46
6.35
 50
0.0
 44
0.0
 45
0.0
  9
TRACK1
 49
3.81
 74
     0
  0
LTYPE
  5
1605
330
1531
100
AcDbSymbolTableRecord
100
AcDbLinetypeTableRecord
  2
ZIGZAG
 70
     0
  3
Zig zag /\/\/\/\/\/\/\/\/\/\/\/\/\/\/\/\/\/\/\/\/\/\/\/
 72
    65
 73
     4
 40
20.32254
 49
0.00254
 74
     0
 49
-5.08
 74
     2
 75
     0
340
1603
 46
5.08
 50
0.0
 44
-5.08
 45
0.0
  9
ZIG
 49
-10.16
 74
     2
 75
     0
340
1604
 46
5.08
 50
180.0
 44
5.08
 45
0.0
  9
ZIG
 49
-5.08
 74
     0
  0
LTYPE
  5
1606
330
1531
100
AcDbSymbolTableRecord
100
AcDbLinetypeTableRecord
  2
HIDDENNEW0
 70
     0
  3
_ 
 72
    65
 73
     3
 40
4.5
 49
1.5
 74
     0
 49
-1.5
 74
     0
 49
1.5
 74
     0
  0
LTYPE
  5
1607
330
1531
100
AcDbSymbolTableRecord
100
AcDbLinetypeTableRecord
  2
HIDDENNEW1
 70
     0
  3
_ 
 72
    65
 73
     3
 40
4.5
 49
1.5
 74
     0
 49
-1.5
 74
     0
 49
1.5
 74
     0
  0
LTYPE
  5
1608
330
1531
100
AcDbSymbolTableRecord
100
AcDbLinetypeTableRecord
  2
CENTERLINE
 70
     0
  3
_ 
 72
    65
 73
     5
 40
30.0
 49
12.0
 74
     0
 49
-1.5
 74
     0
 49
3.0
 74
     0
 49
-1.5
 74
     0
 49
12.0
 74
     0
  0
LTYPE
  5
1609
330
1531
100
AcDbSymbolTableRecord
100
AcDbLinetypeTableRecord
  2
SHORT_DASH
 70
     0
  3
_ 
 72
    65
 73
     3
 40
3.0
 49
0.75
 74
     0
 49
-1.5
 74
     0
 49
0.75
 74
     0
  0
LTYPE
  5
160A
330
1531
100
AcDbSymbolTableRecord
100
AcDbLinetypeTableRecord
  2
LONG_DASH
 70
     0
  3
_ 
 72
    65
 73
     3
 40
9.0
 49
2.25
 74
     0
 49
-4.5
 74
     0
 49
2.25
 74
     0
  0
LTYPE
  5
160B
330
1531
100
AcDbSymbolTableRecord
100
AcDbLinetypeTableRecord
  2
DSH1
 70
     0
  3
_ 
 72
    65
 73
     3
 40
1.8288
 49
0.6096
 74
     0
 49
-0.6096
 74
     0
 49
0.6096
 74
     0
  0
LTYPE
  5
160C
330
1531
100
AcDbSymbolTableRecord
100
AcDbLinetypeTableRecord
  2
DSH2
 70
     0
  3
_ 
 72
    65
 73
     3
 40
4.8768
 49
1.8288
 74
     0
 49
-1.2192
 74
     0
 49
1.8288
 74
     0
  0
LTYPE
  5
160D
330
1531
100
AcDbSymbolTableRecord
100
AcDbLinetypeTableRecord
  2
DSH3
 70
     0
  3
_ 
 72
    65
 73
     3
 40
7.9248
 49
3.048
 74
     0
 49
-1.8288
 74
     0
 49
3.048
 74
     0
  0
LTYPE
  5
160E
330
1531
100
AcDbSymbolTableRecord
100
AcDbLinetypeTableRecord
  2
DSH4
 70
     0
  3
_ 
 72
    65
 73
     3
 40
17.6784
 49
7.9248
 74
     0
 49
-1.8288
 74
     0
 49
7.9248
 74
     0
  0
LTYPE
  5
160F
330
1531
100
AcDbSymbolTableRecord
100
AcDbLinetypeTableRecord
  2
DSH5
 70
     0
  3
_ 
 72
    65
 73
     3
 40
24.9936
 49
11.5824
 74
     0
 49
-1.8288
 74
     0
 49
11.5824
 74
     0
  0
LTYPE
  5
1610
330
1531
100
AcDbSymbolTableRecord
100
AcDbLinetypeTableRecord
  2
DSH6
 70
     0
  3
_ 
 72
    65
 73
     3
 40
44.5008
 49
21.336
 74
     0
 49
-1.8288
 74
     0
 49
21.336
 74
     0
  0
LTYPE
  5
1611
330
1531
100
AcDbSymbolTableRecord
100
AcDbLinetypeTableRecord
  2
PL1
 70
     0
  3
_ 
 72
    65
 73
     7
 40
45.11040000000001
 49
20.1168
 74
     0
 49
-1.2192
 74
     0
 49
0.6096
 74
     0
 49
-1.2192
 74
     0
 49
0.6096
 74
     0
 49
-1.2192
 74
     0
 49
20.1168
 74
     0
  0
LTYPE
  5
1612
330
1531
100
AcDbSymbolTableRecord
100
AcDbLinetypeTableRecord
  2
PL2
 70
     0
  3
_ 
 72
    65
 73
     7
 40
49.9872
 49
21.336
 74
     0
 49
-1.2192
 74
     0
 49
1.8288
 74
     0
 49
-1.2192
 74
     0
 49
1.8288
 74
     0
 49
-1.2192
 74
     0
 49
21.336
 74
     0
  0
LTYPE
  5
1613
330
1531
100
AcDbSymbolTableRecord
100
AcDbLinetypeTableRecord
  2
PL3
 70
     0
  3
_ 
 72
    65
 73
     7
 40
112.776
 49
50.5968
 74
     0
 49
-1.8288
 74
     0
 49
3.048
 74
     0
 49
-1.8288
 74
     0
 49
3.048
 74
     0
 49
-1.8288
 74
     0
 49
50.5968
 74
     0
  0
LTYPE
  5
1614
330
1531
100
AcDbSymbolTableRecord
100
AcDbLinetypeTableRecord
  2
CL1
 70
     0
  3
_ 
 72
    65
 73
     5
 40
18.288
 49
2.4384
 74
     0
 49
-1.2192
 74
     0
 49
10.9728
 74
     0
 49
-1.2192
 74
     0
 49
2.4384
 74
     0
  0
LTYPE
  5
1615
330
1531
100
AcDbSymbolTableRecord
100
AcDbLinetypeTableRecord
  2
CL2
 70
     0
  3
_ 
 72
    65
 73
     5
 40
24.9936
 49
1.2192
 74
     0
 49
-1.2192
 74
     0
 49
20.1168
 74
     0
 49
-1.2192
 74
     0
 49
1.2192
 74
     0
  0
LTYPE
  5
1616
330
1531
100
AcDbSymbolTableRecord
100
AcDbLinetypeTableRecord
  2
CL3
 70
     0
  3
_ 
 72
    65
 73
     5
 40
27.432
 49
1.8288
 74
     0
 49
-1.2192
 74
     0
 49
21.336
 74
     0
 49
-1.2192
 74
     0
 49
1.8288
 74
     0
  0
LTYPE
  5
1617
330
1531
100
AcDbSymbolTableRecord
100
AcDbLinetypeTableRecord
  2
CL4
 70
     0
  3
_ 
 72
    65
 73
     5
 40
42.672
 49
2.4384
 74
     0
 49
-1.2192
 74
     0
 49
35.3568
 74
     0
 49
-1.2192
 74
     0
 49
2.4384
 74
     0
  0
LTYPE
  5
1618
330
1531
100
AcDbSymbolTableRecord
100
AcDbLinetypeTableRecord
  2
CL5
 70
     0
  3
_ 
 72
    65
 73
     5
 40
82.9056
 49
3.048
 74
     0
 49
-1.8288
 74
     0
 49
73.152
 74
     0
 49
-1.8288
 74
     0
 49
3.048
 74
     0
  0
LTYPE
  5
1619
330
1531
100
AcDbSymbolTableRecord
100
AcDbLinetypeTableRecord
  2
SBK1
 70
     0
  3
_ 
 72
    65
 73
     9
 40
83.51520000000001
 49
35.3568
 74
     0
 49
-1.8288
 74
     0
 49
1.8288
 74
     0
 49
-1.8288
 74
     0
 49
1.8288
 74
     0
 49
-1.8288
 74
     0
 49
1.8288
 74
     0
 49
-1.8288
 74
     0
 49
35.3568
 74
     0
  0
LTYPE
  5
161A
330
1531
100
AcDbSymbolTableRecord
100
AcDbLinetypeTableRecord
  2
SBK2
 70
     0
  3
_ 
 72
    65
 73
     9
 40
117.6528
 49
50.5968
 74
     0
 49
-1.8288
 74
     0
 49
3.048
 74
     0
 49
-1.8288
 74
     0
 49
3.048
 74
     0
 49
-1.8288
 74
     0
 49
3.048
 74
     0
 49
-1.8288
 74
     0
 49
50.5968
 74
     0
  0
LTYPE
  5
161B
330
1531
100
AcDbSymbolTableRecord
100
AcDbLinetypeTableRecord
  2
MTCH
 70
     0
  3
_ 
 72
    65
 73
     7
 40
110.9472
 49
52.4256
 74
     0
 49
-1.2192
 74
     0
 49
1.2192
 74
     0
 49
-1.2192
 74
     0
 49
1.2192
 74
     0
 49
-1.2192
 74
     0
 49
52.4256
 74
     0
  0
LTYPE
  5
161C
330
1531
100
AcDbSymbolTableRecord
100
AcDbLinetypeTableRecord
  2
STCH
 70
     0
  3
_ 
 72
    65
 73
     3
 40
3.048
 49
0.6096
 74
     0
 49
-1.8288
 74
     0
 49
0.6096
 74
     0
  0
ENDTAB
  0
TABLE
  2
LAYER
  5
152E
330
0
100
AcDbSymbolTable
 70
     7
  0
LAYER
  5
153C
330
152E
100
AcDbSymbolTableRecord
100
AcDbLayerTableRecord
  2
0
 70
     0
 62
     7
420
 16777215
  6
Continuous
370
    -3
390
153B
347
1571
348
0
  0
LAYER
  5
161D
330
152E
100
AcDbSymbolTableRecord
100
AcDbLayerTableRecord
  2
Origins
 70
     0
 62
     1
420
 16711680
  6
Continuous
370
    -3
390
153B
347
1571
348
0
  0
LAYER
  5
161E
330
152E
100
AcDbSymbolTableRecord
100
AcDbLayerTableRecord
  2
Cutout
 70
     0
 62
     1
420
 16711680
  6
Continuous
370
    -3
390
153B
347
1571
348
0
  0
LAYER
  5
161F
330
152E
100
AcDbSymbolTableRecord
100
AcDbLayerTableRecord
  2
BEMASSUNG
 70
     0
 62
     3
420
    65280
  6
Continuous
370
    -3
390
153B
347
1571
348
0
  0
LAYER
  5
1620
330
152E
100
AcDbSymbolTableRecord
100
AcDbLayerTableRecord
  2
INFO
 70
     0
 62
     2
420
 16776960
  6
Continuous
370
    -3
390
153B
347
1571
348
0
  0
LAYER
  5
1621
330
152E
100
AcDbSymbolTableRecord
100
AcDbLayerTableRecord
  2
Dimension
 70
     0
 62
     7
420
 16777215
  6
Continuous
370
    -3
390
153B
347
1571
348
0
  0
LAYER
  5
1622
330
152E
100
AcDbSymbolTableRecord
100
AcDbLayerTableRecord
  2
Defpoints
 70
     0
 62
     7
420
 16777215
  6
Continuous
290
     0
370
    -3
390
153B
347
1571
348
0
  0
ENDTAB
  0
TABLE
  2
STYLE
  5
152F
330
0
100
AcDbSymbolTable
 70
    14
  0
STYLE
  5
153D
330
152F
100
AcDbSymbolTableRecord
100
AcDbTextStyleTableRecord
  2
Standard
 70
     0
 40
0.0
 41
1.0
 50
0.0
 71
     0
 42
1.0
  3
txt
  4

  0
STYLE
  5
15CA
330
152F
100
AcDbSymbolTableRecord
100
AcDbTextStyleTableRecord
  2
QCADDimTextStyle
 70
     0
 40
0.0
 41
1.0
 50
0.0
 71
     0
 42
1.0
  3

  4

1001
ACAD
1000
monotxt.shx
1071
        0
  0
STYLE
  5
15DA
330
152F
100
AcDbSymbolTableRecord
100
AcDbTextStyleTableRecord
  2
textstyle0
 70
     0
 40
0.0
 41
1.0
 50
0.0
 71
     0
 42
1.0
  3
ltypeshp.shx
  4

  0
STYLE
  5
15DB
330
152F
100
AcDbSymbolTableRecord
100
AcDbTextStyleTableRecord
  2
textstyle1
 70
     0
 40
0.0
 41
1.0
 50
0.0
 71
     0
 42
1.0
  3
ltypeshp.shx
  4

  0
STYLE
  5
15EF
330
152F
100
AcDbSymbolTableRecord
100
AcDbTextStyleTableRecord
  2
textstyle2
 70
     0
 40
0.0
 41
1.0
 50
0.0
 71
     0
 42
1.0
  3
qcadshp.shx
  4

  0
STYLE
  5
15F1
330
152F
100
AcDbSymbolTableRecord
100
AcDbTextStyleTableRecord
  2
textstyle3
 70
     0
 40
0.0
 41
1.0
 50
0.0
 71
     0
 42
1.0
  3
qcadshp.shx
  4

  0
STYLE
  5
15F3
330
152F
100
AcDbSymbolTableRecord
100
AcDbTextStyleTableRecord
  2
textstyle4
 70
     0
 40
0.0
 41
1.0
 50
0.0
 71
     0
 42
1.0
  3
ltypeshp.shx
  4

  0
STYLE
  5
15F5
330
152F
100
AcDbSymbolTableRecord
100
AcDbTextStyleTableRecord
  2
textstyle5
 70
     0
 40
0.0
 41
1.0
 50
0.0
 71
     0
 42
1.0
  3
ltypeshp.shx
  4

  0
STYLE
  5
15F7
330
152F
100
AcDbSymbolTableRecord
100
AcDbTextStyleTableRecord
  2
textstyle6
 70
     0
 40
0.0
 41
1.0
 50
0.0
 71
     0
 42
1.0
  3
STANDARD
  4

  0
STYLE
  5
15FC
330
152F
100
AcDbSymbolTableRecord
100
AcDbTextStyleTableRecord
  2
textstyle7
 70
     0
 40
0.0
 41
1.0
 50
0.0
 71
     0
 42
1.0
  3
STANDARD
  4

  0
STYLE
  5
1601
330
152F
100
AcDbSymbolTableRecord
100
AcDbTextStyleTableRecord
  2
textstyle8
 70
     0
 40
0.0
 41
1.0
 50
0.0
 71
     0
 42
1.0
  3
ltypeshp.shx
  4

  0
STYLE
  5
1603
330
152F
100
AcDbSymbolTableRecord
100
AcDbTextStyleTableRecord
  2
textstyle9
 70
     0
 40
0.0
 41
1.0
 50
0.0
 71
     0
 42
1.0
  3
ltypeshp.shx
  4

  0
STYLE
  5
1604
330
152F
100
AcDbSymbolTableRecord
100
AcDbTextStyleTableRecord
  2
textstyle10
 70
     0
 40
0.0
 41
1.0
 50
0.0
 71
     0
 42
1.0
  3
ltypeshp.shx
  4

  0
STYLE
  5
167A
330
152F
100
AcDbSymbolTableRecord
100
AcDbTextStyleTableRecord
  2
textstyle11
 70
     0
 40
0.0
 41
1.0
 50
0.0
 71
     0
 42
1.0
  3

  4

1001
ACAD
1000
Arial
1071
        0
  0
ENDTAB
  0
TABLE
  2
VIEW
  5
1532
330
0
100
AcDbSymbolTable
 70
     0
  0
ENDTAB
  0
TABLE
  2
UCS
  5
1533
330
0
100
AcDbSymbolTable
 70
     0
  0
ENDTAB
  0
TABLE
  2
APPID
  5
1535
330
0
100
AcDbSymbolTable
 70
     2
  0
APPID
  5
153E
330
1535
100
AcDbSymbolTableRecord
100
AcDbRegAppTableRecord
  2
ACAD
 70
     0
  0
APPID
  5
1599
330
1535
100
AcDbSymbolTableRecord
100
AcDbRegAppTableRecord
  2
QCAD
 70
     0
  0
ENDTAB
  0
TABLE
  2
DIMSTYLE
  5
1536
330
0
100
AcDbSymbolTable
 70
     2
100
AcDbDimStyleTable
  0
DIMSTYLE
105
1552
330
1536
100
AcDbSymbolTableRecord
100
AcDbDimStyleTableRecord
  2
Standard
 70
     0
178
     0
340
153D
  0
DIMSTYLE
105
15CB
102
{ACAD_REACTORS
330
133A
330
133B
330
170
330
171
330
173
330
174
330
175
330
1105
330
1106
330
1107
330
1108
330
1109
330
110A
330
110F
330
123B
102
}
330
1536
100
AcDbSymbolTableRecord
100
AcDbDimStyleTableRecord
  2
QCADDimStyle
 70
     0
 41
0.125
 44
0.125
 73
     0
 77
     1
140
3.0
147
0.0625
178
     0
340
15CA
  0
ENDTAB
  0
TABLE
  2
BLOCK_RECORD
  5
152D
330
0
100
AcDbSymbolTable
 70
    17
  0
BLOCK_RECORD
  5
154A
330
152D
100
AcDbSymbolTableRecord
100
AcDbBlockTableRecord
  2
*Model_Space
340
154D
 70
     0
280
     1
281
     0
  0
BLOCK_RECORD
  5
1546
330
152D
100
AcDbSymbolTableRecord
100
AcDbBlockTableRecord
  2
*Paper_Space
340
1549
 70
     0
280
     1
281
     0
  0
BLOCK_RECORD
  5
154E
330
152D
100
AcDbSymbolTableRecord
100
AcDbBlockTableRecord
  2
*Paper_Space0
340
1551
 70
     0
280
     1
281
     0
  0
BLOCK_RECORD
  5
1623
330
152D
100
AcDbSymbolTableRecord
100
AcDbBlockTableRecord
  2
AusschnittR13-112
340
0
102
{BLKREFS
331
110D
102
}
 70
     0
280
     1
281
     0
  0
BLOCK_RECORD
  5
1626
330
152D
100
AcDbSymbolTableRecord
100
AcDbBlockTableRecord
  2
*D2
340
0
 70
     0
280
     1
281
     0
  0
BLOCK_RECORD
  5
1632
330
152D
100
AcDbSymbolTableRecord
100
AcDbBlockTableRecord
  2
*D3
340
0
 70
     0
280
     1
281
     0
  0
BLOCK_RECORD
  5
163E
330
152D
100
AcDbSymbolTableRecord
100
AcDbBlockTableRecord
  2
*D4
340
0
 70
     0
280
     1
281
     0
  0
BLOCK_RECORD
  5
164A
330
152D
100
AcDbSymbolTableRecord
100
AcDbBlockTableRecord
  2
*D5
340
0
 70
     0
280
     1
281
     0
  0
BLOCK_RECORD
  5
1656
330
152D
100
AcDbSymbolTableRecord
100
AcDbBlockTableRecord
  2
*D6
340
0
 70
     0
280
     1
281
     0
  0
BLOCK_RECORD
  5
1662
330
152D
100
AcDbSymbolTableRecord
100
AcDbBlockTableRecord
  2
*D7
340
0
 70
     0
280
     1
281
     0
  0
BLOCK_RECORD
  5
166E
330
152D
100
AcDbSymbolTableRecord
100
AcDbBlockTableRecord
  2
*D8
340
0
 70
     0
280
     1
281
     0
  0
BLOCK_RECORD
  5
167B
330
152D
100
AcDbSymbolTableRecord
100
AcDbBlockTableRecord
  2
*D9
340
0
 70
     0
280
     1
281
     0
  0
BLOCK_RECORD
  5
1687
330
152D
100
AcDbSymbolTableRecord
100
AcDbBlockTableRecord
  2
*D10
340
0
 70
     0
280
     1
281
     0
  0
BLOCK_RECORD
  5
1693
330
152D
100
AcDbSymbolTableRecord
100
AcDbBlockTableRecord
  2
*D11
340
0
 70
     0
280
     1
281
     0
  0
BLOCK_RECORD
  5
169F
330
152D
100
AcDbSymbolTableRecord
100
AcDbBlockTableRecord
  2
*D12
340
0
 70
     0
280
     1
281
     0
  0
BLOCK_RECORD
  5
16AB
330
152D
100
AcDbSymbolTableRecord
100
AcDbBlockTableRecord
  2
*D13
340
0
 70
     0
280
     1
281
     0
  0
BLOCK_RECORD
  5
16B7
330
152D
100
AcDbSymbolTableRecord
100
AcDbBlockTableRecord
  2
*D14
340
0
 70
     0
280
     1
281
     0
  0
BLOCK_RECORD
  5
16C3
330
152D
100
AcDbSymbolTableRecord
100
AcDbBlockTableRecord
  2
*D15
340
0
 70
     0
280
     1
281
     0
  0
BLOCK_RECORD
  5
16CF
330
152D
100
AcDbSymbolTableRecord
100
AcDbBlockTableRecord
  2
*D16
340
0
 70
     0
280
     1
281
     0
  0
ENDTAB
  0
ENDSEC
  0
SECTION
  2
BLOCKS
  0
BLOCK
  5
154B
330
154A
100
AcDbEntity
  8
0
100
AcDbBlockBegin
  2
*Model_Space
 70
     0
 10
0.0
 20
0.0
 30
0.0
  3
*Model_Space
  1
*Model_Space
  0
ENDBLK
  5
154C
330
154A
100
AcDbEntity
  8
0
100
AcDbBlockEnd
  0
BLOCK
  5
1547
330
1546
100
AcDbEntity
 67
     1
  8
0
100
AcDbBlockBegin
  2
*Paper_Space
 70
     0
 10
0.0
 20
0.0
 30
0.0
  3
*Paper_Space
  1
*Paper_Space
  0
ENDBLK
  5
1548
330
1546
100
AcDbEntity
 67
     1
  8
0
100
AcDbBlockEnd
  0
BLOCK
  5
154F
330
154E
100
AcDbEntity
  8
0
100
AcDbBlockBegin
  2
*Paper_Space0
 70
     0
 10
0.0
 20
0.0
 30
0.0
  3
*Paper_Space0
  1
*Paper_Space0
  0
ENDBLK
  5
1550
330
154E
100
AcDbEntity
  8
0
100
AcDbBlockEnd
  0
BLOCK
  5
1624
330
1623
100
AcDbEntity
  8
0
100
AcDbBlockBegin
  2
AusschnittR13-112
 70
     0
 10
0.0
 20
0.0
 30
0.0
  3
AusschnittR13-112
  1
AusschnittR13-112
  0
ARC
  5
C6E
330
1623
100
AcDbEntity
  8
Cutout
100
AcDbCircle
 10
0.0
 20
0.0
 30
0.0
 40
10.1
100
AcDbArc
 50
347.9994668857905
 51
12.00053311420949
  0
ARC
  5
C6D
330
1623
100
AcDbEntity
  8
Cutout
100
AcDbCircle
 10
0.0
 20
0.0
 30
0.0
 40
10.1
100
AcDbArc
 50
276.2525370299824
 51
340.1515551205638
  0
ARC
  5
C6C
330
1623
100
AcDbEntity
  8
Cutout
100
AcDbCircle
 10
0.0
 20
0.0
 30
0.0
 40
10.1
100
AcDbArc
 50
19.84844487943625
 51
160.151561418946
  0
ARC
  5
C6A
330
1623
100
AcDbEntity
  8
Cutout
100
AcDbCircle
 10
0.0
 20
0.0
 30
0.0
 40
10.1
100
AcDbArc
 50
199.848438581054
 51
263.7474629700176
  0
ARC
  5
C69
330
1623
100
AcDbEntity
  8
Cutout
100
AcDbCircle
 10
0.0
 20
0.0
 30
0.0
 40
10.1
100
AcDbArc
 50
167.9994668857905
 51
192.0005331142095
  0
LINE
  5
C5D
330
1623
100
AcDbEntity
  8
Cutout
100
AcDbLine
 10
-1.1
 20
-11.00000000000001
 30
0.0
 11
1.100000000000001
 21
-11.00000000000001
 31
0.0
  0
LINE
  5
C65
330
1623
100
AcDbEntity
  8
Cutout
100
AcDbLine
 10
-1.1
 20
-11.00000000000001
 30
0.0
 11
-1.100000000000003
 21
-10.03992031840892
 31
0.0
  0
LINE
  5
C66
330
1623
100
AcDbEntity
  8
Cutout
100
AcDbLine
 10
1.100000000000001
 20
-11.00000000000001
 30
0.0
 11
1.1
 21
-10.03992031840892
 31
0.0
  0
LINE
  5
C6F
330
1623
100
AcDbEntity
  8
Cutout
100
AcDbLine
 10
-9.500000000000002
 20
3.429285639896435
 30
0.0
 11
-9.500000000000004
 21
2.09999999999998
 31
0.0
  0
LINE
  5
C70
330
1623
100
AcDbEntity
  8
Cutout
100
AcDbLine
 10
-9.500000000000004
 20
-3.429285639896463
 30
0.0
 11
-9.500000000000004
 21
-2.100000000000023
 31
0.0
  0
LINE
  5
C71
330
1623
100
AcDbEntity
  8
Cutout
100
AcDbLine
 10
9.499999623027126
 20
-3.429286684207753
 30
0.0
 11
9.499999623027126
 21
-2.100000000000023
 31
0.0
  0
LINE
  5
C72
330
1623
100
AcDbEntity
  8
Cutout
100
AcDbLine
 10
9.499999623027126
 20
3.429286684207725
 30
0.0
 11
9.499999623027126
 21
2.09999999999998
 31
0.0
  0
LINE
  5
C73
330
1623
100
AcDbEntity
  8
Cutout
100
AcDbLine
 10
-9.879271228182777
 20
2.09999999999998
 30
0.0
 11
-9.500000000000004
 21
2.09999999999998
 31
0.0
  0
LINE
  5
C74
330
1623
100
AcDbEntity
  8
Cutout
100
AcDbLine
 10
-9.879271228182777
 20
-2.100000000000023
 30
0.0
 11
-9.500000000000004
 21
-2.100000000000023
 31
0.0
  0
LINE
  5
C75
330
1623
100
AcDbEntity
  8
Cutout
100
AcDbLine
 10
9.499999623027126
 20
2.09999999999998
 30
0.0
 11
9.879271228182777
 21
2.09999999999998
 31
0.0
  0
LINE
  5
C76
330
1623
100
AcDbEntity
  8
Cutout
100
AcDbLine
 10
9.499999623027126
 20
-2.100000000000023
 30
0.0
 11
9.879271228182777
 21
-2.100000000000023
 31
0.0
  0
ENDBLK
  5
1625
330
1623
100
AcDbEntity
  8
0
100
AcDbBlockEnd
  0
BLOCK
  5
1627
330
1626
100
AcDbEntity
  8
0
100
AcDbBlockBegin
  2
*D2
 70
     1
 10
0.0
 20
0.0
 30
0.0
  3
*D2
  1
*D2
  0
LINE
  5
1629
330
1626
100
AcDbEntity
  8
BEMASSUNG
 62
     0
370
    -2
100
AcDbLine
 10
12.700166
 20
35.6225
 30
0.0
 11
12.700166
 21
35.88499999999999
 31
0.0
  0
LINE
  5
162A
330
1626
100
AcDbEntity
  8
BEMASSUNG
 62
     0
370
    -2
100
AcDbLine
 10
-7.449863000000001
 20
35.6225
 30
0.0
 11
-7.449863000000001
 21
35.88499999999999
 31
0.0
  0
LINE
  5
162B
330
1626
100
AcDbEntity
  8
BEMASSUNG
 62
     0
370
    -2
100
AcDbLine
 10
12.575166
 20
35.75999999999999
 30
0.0
 11
-7.324863000000001
 21
35.75999999999999
 31
0.0
  0
SOLID
  5
162C
330
1626
100
AcDbEntity
  8
BEMASSUNG
 62
     0
100
AcDbTrace
 10
12.575166
 20
35.73916666666666
 30
0.0
 11
12.575166
 21
35.78083333333333
 31
0.0
 12
12.700166
 22
35.75999999999999
 32
0.0
 13
12.700166
 23
35.75999999999999
 33
0.0
  0
SOLID
  5
162D
330
1626
100
AcDbEntity
  8
BEMASSUNG
 62
     0
100
AcDbTrace
 10
-7.324863000000001
 20
35.78083333333333
 30
0.0
 11
-7.324863000000001
 21
35.73916666666666
 31
0.0
 12
-7.449863000000001
 22
35.75999999999999
 32
0.0
 13
-7.449863000000001
 23
35.75999999999999
 33
0.0
  0
MTEXT
  5
162E
330
1626
100
AcDbEntity
  8
BEMASSUNG
 62
     0
100
AcDbMText
 10
2.625151499999999
 20
37.32249999999999
 30
0.0
 40
3.0
 41
0.0
 46
0.0
 71
     5
 72
     1
  1
\A1;20.150
  7
QCADDimTextStyle
 73
     1
 44
1.0
  0
POINT
  5
162F
330
1626
100
AcDbEntity
  8
Defpoints
 62
     0
100
AcDbPoint
 10
12.700166
 20
35.56
 30
0.0
  0
POINT
  5
1630
330
1626
100
AcDbEntity
  8
Defpoints
 62
     0
100
AcDbPoint
 10
-7.449863000000001
 20
35.56
 30
0.0
  0
POINT
  5
1631
330
1626
100
AcDbEntity
  8
Defpoints
 62
     0
100
AcDbPoint
 10
-7.449863000000001
 20
35.75999999999999
 30
0.0
  0
ENDBLK
  5
1628
330
1626
100
AcDbEntity
  8
0
100
AcDbBlockEnd
  0
BLOCK
  5
1633
330
1632
100
AcDbEntity
  8
0
100
AcDbBlockBegin
  2
*D3
 70
     1
 10
0.0
 20
0.0
 30
0.0
  3
*D3
  1
*D3
  0
LINE
  5
1635
330
1632
100
AcDbEntity
  8
BEMASSUNG
 62
     0
370
    -2
100
AcDbLine
 10
-3.496720723589814
 20
29.98812301613059
 30
0.0
 11
11.2800649906959
 21
29.98812301613059
 31
0.0
  0
LINE
  5
1636
330
1632
100
AcDbEntity
  8
BEMASSUNG
 62
     0
370
    -2
100
AcDbLine
 10
12.05185901749161
 20
33.01631702910309
 30
0.0
 11
11.2800649906959
 21
29.98812301613059
 31
0.0
  0
LINE
  5
1637
330
1632
100
AcDbEntity
  8
BEMASSUNG
 62
     0
370
    -2
100
AcDbLine
 10
13.34847298250839
 20
38.1036829708969
 30
0.0
 11
13.37934474358022
 21
38.2248107314158
 31
0.0
  0
MTEXT
  5
1638
330
1632
100
AcDbEntity
  8
BEMASSUNG
 62
     0
100
AcDbMText
 10
3.860422133553045
 20
31.5506230161306
 30
0.0
 40
3.0
 41
0.0
 46
0.0
 71
     5
 72
     1
  1
\A1;%%c5.000
  7
QCADDimTextStyle
 73
     1
 44
1.0
  0
LINE
  5
1639
330
1632
100
AcDbEntity
  8
BEMASSUNG
 62
     0
370
    -2
100
AcDbLine
 10
13.31760122143656
 20
37.982555210378
 30
0.0
 11
12.08273077856344
 21
33.13744478962199
 31
0.0
  0
SOLID
  5
163A
330
1632
100
AcDbEntity
  8
BEMASSUNG
 62
     0
100
AcDbTrace
 10
13.32828502242191
 20
38.10882826440887
 30
0.0
 11
13.36866094259488
 21
38.09853767738493
 31
0.0
 12
13.31760122143656
 22
37.982555210378
 32
0.0
 13
13.31760122143656
 23
37.982555210378
 33
0.0
  0
SOLID
  5
163B
330
1632
100
AcDbEntity
  8
BEMASSUNG
 62
     0
100
AcDbTrace
 10
12.07204697757809
 20
33.01117173559112
 30
0.0
 11
12.03167105740512
 21
33.02146232261506
 31
0.0
 12
12.08273077856344
 22
33.13744478962199
 32
0.0
 13
12.08273077856344
 23
33.13744478962199
 33
0.0
  0
POINT
  5
163C
330
1632
100
AcDbEntity
  8
Defpoints
 62
     0
100
AcDbPoint
 10
12.08273077856344
 20
33.13744478962199
 30
0.0
  0
POINT
  5
163D
330
1632
100
AcDbEntity
  8
Defpoints
 62
     0
100
AcDbPoint
 10
13.31760122143656
 20
37.982555210378
 30
0.0
  0
ENDBLK
  5
1634
330
1632
100
AcDbEntity
  8
0
100
AcDbBlockEnd
  0
BLOCK
  5
163F
330
163E
100
AcDbEntity
  8
0
100
AcDbBlockBegin
  2
*D4
 70
     1
 10
0.0
 20
0.0
 30
0.0
  3
*D4
  1
*D4
  0
LINE
  5
1641
330
163E
100
AcDbEntity
  8
BEMASSUNG
  6
Continuous
 62
     0
370
    -2
100
AcDbLine
 10
-7.449863000000001
 20
-3.0625
 30
0.0
 11
-7.449863000000001
 21
-16.093969
 31
0.0
  0
LINE
  5
1642
330
163E
100
AcDbEntity
  8
BEMASSUNG
  6
Continuous
 62
     0
370
    -2
100
AcDbLine
 10
32.850195
 20
-3.062468999999993
 30
0.0
 11
32.850195
 21
-16.093969
 31
0.0
  0
LINE
  5
1643
330
163E
100
AcDbEntity
  8
BEMASSUNG
  6
Continuous
 62
     0
370
    -2
100
AcDbLine
 10
-7.324863000000001
 20
-15.968969
 30
0.0
 11
32.725195
 21
-15.968969
 31
0.0
  0
SOLID
  5
1644
330
163E
100
AcDbEntity
  8
BEMASSUNG
 62
     0
100
AcDbTrace
 10
-7.324863000000001
 20
-15.94813566666667
 30
0.0
 11
-7.324863000000001
 21
-15.98980233333334
 31
0.0
 12
-7.449863000000001
 22
-15.968969
 32
0.0
 13
-7.449863000000001
 23
-15.968969
 33
0.0
  0
SOLID
  5
1645
330
163E
100
AcDbEntity
  8
BEMASSUNG
 62
     0
100
AcDbTrace
 10
32.725195
 20
-15.98980233333334
 30
0.0
 11
32.725195
 21
-15.94813566666667
 31
0.0
 12
32.850195
 22
-15.968969
 32
0.0
 13
32.850195
 23
-15.968969
 33
0.0
  0
MTEXT
  5
1646
330
163E
100
AcDbEntity
  8
BEMASSUNG
 62
     0
100
AcDbMText
 10
12.700166
 20
-13.217969
 30
0.0
 40
3.0
 41
0.0
 46
0.0
 71
     5
 72
     1
  1
\A1;40.300
  7
QCADDimTextStyle
 73
     1
 44
1.0
  0
POINT
  5
1647
330
163E
100
AcDbEntity
  8
Defpoints
 62
     0
100
AcDbPoint
 10
-7.449863000000001
 20
-3.0
 30
0.0
  0
POINT
  5
1648
330
163E
100
AcDbEntity
  8
Defpoints
 62
     0
100
AcDbPoint
 10
32.850195
 20
-2.999968999999993
 30
0.0
  0
POINT
  5
1649
330
163E
100
AcDbEntity
  8
Defpoints
 62
     0
100
AcDbPoint
 10
32.850195
 20
-15.968969
 30
0.0
  0
ENDBLK
  5
1640
330
163E
100
AcDbEntity
  8
0
100
AcDbBlockEnd
  0
BLOCK
  5
164B
330
164A
100
AcDbEntity
  8
0
100
AcDbBlockBegin
  2
*D5
 70
     1
 10
0.0
 20
0.0
 30
0.0
  3
*D5
  1
*D5
  0
LINE
  5
164D
330
164A
100
AcDbEntity
  8
BEMASSUNG
  6
Continuous
 62
     0
370
    -2
100
AcDbLine
 10
-7.449863000000001
 20
125.462069
 30
0.0
 11
-7.449863000000001
 21
129.663029
 31
0.0
  0
LINE
  5
164E
330
164A
100
AcDbEntity
  8
BEMASSUNG
  6
Continuous
 62
     0
370
    -2
100
AcDbLine
 10
0.0
 20
124.462159
 30
0.0
 11
0.0
 21
129.663029
 31
0.0
  0
LINE
  5
164F
330
164A
100
AcDbEntity
  8
BEMASSUNG
  6
Continuous
 62
     0
370
    -2
100
AcDbLine
 10
-7.324863000000001
 20
129.538029
 30
0.0
 11
-0.125
 21
129.538029
 31
0.0
  0
SOLID
  5
1650
330
164A
100
AcDbEntity
  8
BEMASSUNG
 62
     0
100
AcDbTrace
 10
-7.324863000000001
 20
129.5588623333333
 30
0.0
 11
-7.324863000000001
 21
129.5171956666667
 31
0.0
 12
-7.449863000000001
 22
129.538029
 32
0.0
 13
-7.449863000000001
 23
129.538029
 33
0.0
  0
SOLID
  5
1651
330
164A
100
AcDbEntity
  8
BEMASSUNG
 62
     0
100
AcDbTrace
 10
-0.125
 20
129.5171956666667
 30
0.0
 11
-0.125
 21
129.5588623333333
 31
0.0
 12
0.0
 22
129.538029
 32
0.0
 13
0.0
 23
129.538029
 33
0.0
  0
MTEXT
  5
1652
330
164A
100
AcDbEntity
  8
BEMASSUNG
 62
     0
100
AcDbMText
 10
10.58913699999999
 20
132.289029
 30
0.0
 40
3.0
 41
0.0
 46
0.0
 71
     5
 72
     1
  1
\A1;7.450
  7
QCADDimTextStyle
 73
     1
 44
1.0
  0
POINT
  5
1653
330
164A
100
AcDbEntity
  8
Defpoints
 62
     0
100
AcDbPoint
 10
-7.449863000000001
 20
125.399569
 30
0.0
  0
POINT
  5
1654
330
164A
100
AcDbEntity
  8
Defpoints
 62
     0
100
AcDbPoint
 10
0.0
 20
124.399659
 30
0.0
  0
POINT
  5
1655
330
164A
100
AcDbEntity
  8
Defpoints
 62
     0
100
AcDbPoint
 10
0.0
 20
129.538029
 30
0.0
  0
ENDBLK
  5
164C
330
164A
100
AcDbEntity
  8
0
100
AcDbBlockEnd
  0
BLOCK
  5
1657
330
1656
100
AcDbEntity
  8
0
100
AcDbBlockBegin
  2
*D6
 70
     1
 10
0.0
 20
0.0
 30
0.0
  3
*D6
  1
*D6
  0
LINE
  5
1659
330
1656
100
AcDbEntity
  8
BEMASSUNG
  6
Continuous
 62
     0
370
    -2
100
AcDbLine
 10
3.012619000000001
 20
122.399629
 30
0.0
 11
41.14013699999987
 21
122.399629
 31
0.0
  0
LINE
  5
165A
330
1656
100
AcDbEntity
  8
BEMASSUNG
  6
Continuous
 62
     0
370
    -2
100
AcDbLine
 10
3.562618000000001
 20
0.0
 30
0.0
 11
41.14013699999987
 21
-0.0000000000000023
 31
0.0
  0
LINE
  5
165B
330
1656
100
AcDbEntity
  8
BEMASSUNG
  6
Continuous
 62
     0
370
    -2
100
AcDbLine
 10
41.01513699999987
 20
122.274629
 30
0.0
 11
41.01513699999987
 21
0.1249999999999977
 31
0.0
  0
SOLID
  5
165C
330
1656
100
AcDbEntity
  8
BEMASSUNG
 62
     0
100
AcDbTrace
 10
41.03597033333321
 20
122.274629
 30
0.0
 11
40.99430366666654
 21
122.274629
 31
0.0
 12
41.01513699999987
 22
122.399629
 32
0.0
 13
41.01513699999987
 23
122.399629
 33
0.0
  0
SOLID
  5
165D
330
1656
100
AcDbEntity
  8
BEMASSUNG
 62
     0
100
AcDbTrace
 10
40.99430366666653
 20
0.1249999999999977
 30
0.0
 11
41.0359703333332
 21
0.1249999999999977
 31
0.0
 12
41.01513699999987
 22
-0.0000000000000023
 32
0.0
 13
41.01513699999987
 23
-0.0000000000000023
 33
0.0
  0
MTEXT
  5
165E
330
1656
100
AcDbEntity
  8
BEMASSUNG
 62
     0
100
AcDbMText
 10
38.26413700000001
 20
61.19981900000001
 30
0.0
 40
3.0
 41
0.0
 46
0.0
 71
     5
 72
     1
  1
\A1;122.400
  7
QCADDimTextStyle
 73
     1
 44
1.0
  0
POINT
  5
165F
330
1656
100
AcDbEntity
  8
Defpoints
 62
     0
100
AcDbPoint
 10
2.950119000000001
 20
122.399629
 30
0.0
  0
POINT
  5
1660
330
1656
100
AcDbEntity
  8
Defpoints
 62
     0
100
AcDbPoint
 10
3.500118000000001
 20
0.0
 30
0.0
  0
POINT
  5
1661
330
1656
100
AcDbEntity
  8
Defpoints
 62
     0
100
AcDbPoint
 10
41.01513699999987
 20
-0.0000000000000023
 30
0.0
  0
ENDBLK
  5
1658
330
1656
100
AcDbEntity
  8
0
100
AcDbBlockEnd
  0
BLOCK
  5
1663
330
1662
100
AcDbEntity
  8
0
100
AcDbBlockBegin
  2
*D7
 70
     1
 10
0.0
 20
0.0
 30
0.0
  3
*D7
  1
*D7
  0
LINE
  5
1665
330
1662
100
AcDbEntity
  8
BEMASSUNG
  6
Continuous
 62
     0
370
    -2
100
AcDbLine
 10
32.912695
 20
125.399569
 30
0.0
 11
50.41914099999965
 21
125.399569
 31
0.0
  0
LINE
  5
1666
330
1662
100
AcDbEntity
  8
BEMASSUNG
  6
Continuous
 62
     0
370
    -2
100
AcDbLine
 10
32.912695
 20
-2.999968999999993
 30
0.0
 11
50.41914099999963
 21
-2.999968999999996
 31
0.0
  0
LINE
  5
1667
330
1662
100
AcDbEntity
  8
BEMASSUNG
  6
Continuous
 62
     0
370
    -2
100
AcDbLine
 10
50.29414099999965
 20
125.274569
 30
0.0
 11
50.29414099999963
 21
-2.874968999999996
 31
0.0
  0
SOLID
  5
1668
330
1662
100
AcDbEntity
  8
BEMASSUNG
 62
     0
100
AcDbTrace
 10
50.31497433333298
 20
125.274569
 30
0.0
 11
50.27330766666631
 21
125.274569
 31
0.0
 12
50.29414099999965
 22
125.399569
 32
0.0
 13
50.29414099999965
 23
125.399569
 33
0.0
  0
SOLID
  5
1669
330
1662
100
AcDbEntity
  8
BEMASSUNG
 62
     0
100
AcDbTrace
 10
50.27330766666629
 20
-2.874968999999996
 30
0.0
 11
50.31497433333296
 21
-2.874968999999996
 31
0.0
 12
50.29414099999963
 22
-2.999968999999996
 32
0.0
 13
50.29414099999963
 23
-2.999968999999996
 33
0.0
  0
MTEXT
  5
166A
330
1662
100
AcDbEntity
  8
BEMASSUNG
 62
     0
100
AcDbMText
 10
47.54314100000001
 20
61.199799
 30
0.0
 40
3.0
 41
0.0
 46
0.0
 71
     5
 72
     1
  1
\A1;128.400
  7
QCADDimTextStyle
 73
     1
 44
1.0
  0
POINT
  5
166B
330
1662
100
AcDbEntity
  8
Defpoints
 62
     0
100
AcDbPoint
 10
32.850195
 20
125.399569
 30
0.0
  0
POINT
  5
166C
330
1662
100
AcDbEntity
  8
Defpoints
 62
     0
100
AcDbPoint
 10
32.850195
 20
-2.999968999999993
 30
0.0
  0
POINT
  5
166D
330
1662
100
AcDbEntity
  8
Defpoints
 62
     0
100
AcDbPoint
 10
50.29414099999963
 20
-2.999968999999996
 30
0.0
  0
ENDBLK
  5
1664
330
1662
100
AcDbEntity
  8
0
100
AcDbBlockEnd
  0
BLOCK
  5
166F
330
166E
100
AcDbEntity
  8
0
100
AcDbBlockBegin
  2
*D8
 70
     1
 10
0.0
 20
0.0
 30
0.0
  3
*D8
  1
*D8
  0
LINE
  5
1671
330
166E
100
AcDbEntity
  8
BEMASSUNG
  6
Continuous
 62
     0
370
    -2
100
AcDbLine
 10
28.41250100000001
 20
122.399659
 30
0.0
 11
41.140137
 21
122.399659
 31
0.0
  0
LINE
  5
1672
330
166E
100
AcDbEntity
  8
BEMASSUNG
  6
Continuous
 62
     0
370
    -2
100
AcDbLine
 10
32.912695
 20
125.399569
 30
0.0
 11
41.140137
 21
125.399569
 31
0.0
  0
LINE
  5
1673
330
166E
100
AcDbEntity
  8
BEMASSUNG
  6
Continuous
 62
     0
370
    -2
100
AcDbLine
 10
41.015137
 20
122.524659
 30
0.0
 11
41.015137
 21
125.274569
 31
0.0
  0
SOLID
  5
1674
330
166E
100
AcDbEntity
  8
BEMASSUNG
 62
     0
100
AcDbTrace
 10
40.99430366666666
 20
122.524659
 30
0.0
 11
41.03597033333333
 21
122.524659
 31
0.0
 12
41.015137
 22
122.399659
 32
0.0
 13
41.015137
 23
122.399659
 33
0.0
  0
SOLID
  5
1675
330
166E
100
AcDbEntity
  8
BEMASSUNG
 62
     0
100
AcDbTrace
 10
41.03597033333333
 20
125.274569
 30
0.0
 11
40.99430366666666
 21
125.274569
 31
0.0
 12
41.015137
 22
125.399569
 32
0.0
 13
41.015137
 23
125.399569
 33
0.0
  0
MTEXT
  5
1676
330
166E
100
AcDbEntity
  8
BEMASSUNG
 62
     0
100
AcDbMText
 10
38.26413700000001
 20
135.916029
 30
0.0
 40
3.0
 41
0.0
 46
0.0
 71
     5
 72
     1
  1
\A1;3.000
  7
QCADDimTextStyle
 73
     1
 44
1.0
  0
POINT
  5
1677
330
166E
100
AcDbEntity
  8
Defpoints
 62
     0
100
AcDbPoint
 10
28.35000100000001
 20
122.399659
 30
0.0
  0
POINT
  5
1678
330
166E
100
AcDbEntity
  8
Defpoints
 62
     0
100
AcDbPoint
 10
32.850195
 20
125.399569
 30
0.0
  0
POINT
  5
1679
330
166E
100
AcDbEntity
  8
Defpoints
 62
     0
100
AcDbPoint
 10
41.015137
 20
125.399569
 30
0.0
  0
ENDBLK
  5
1670
330
166E
100
AcDbEntity
  8
0
100
AcDbBlockEnd
  0
BLOCK
  5
167C
330
167B
100
AcDbEntity
  8
0
100
AcDbBlockBegin
  2
*D9
 70
     1
 10
0.0
 20
0.0
 30
0.0
  3
*D9
  1
*D9
  0
LINE
  5
167E
330
167B
100
AcDbEntity
  8
BEMASSUNG
 62
     0
370
    -2
100
AcDbLine
 10
36.57121037221208
 20
96.00959360305438
 30
0.0
 11
18.93728180078351
 21
96.00959360305438
 31
0.0
  0
LINE
  5
167F
330
167B
100
AcDbEntity
  8
BEMASSUNG
 62
     0
370
    -2
100
AcDbLine
 10
18.8619543152668
 20
95.90984005712377
 30
0.0
 11
18.93728180078351
 21
96.00959360305438
 31
0.0
  0
LINE
  5
1680
330
167B
100
AcDbEntity
  8
BEMASSUNG
 62
     0
370
    -2
100
AcDbLine
 10
6.538377684733204
 20
79.59015994287623
 30
0.0
 11
6.463050199216495
 21
79.49040639694562
 31
0.0
  0
MTEXT
  5
1681
330
167B
100
AcDbEntity
  8
BEMASSUNG
 62
     0
100
AcDbMText
 10
27.78549608649779
 20
97.57209360305438
 30
0.0
 40
3.0
 41
0.0
 46
0.0
 71
     5
 72
     1
  1
\A1;%%c20.200
  7
QCADDimTextStyle
 73
     1
 44
1.0
  0
LINE
  5
1682
330
167B
100
AcDbEntity
  8
BEMASSUNG
 62
     0
370
    -2
100
AcDbLine
 10
6.613705170249913
 20
79.68991348880684
 30
0.0
 11
18.78662682975009
 21
95.81008651119316
 31
0.0
  0
SOLID
  5
1683
330
167B
100
AcDbEntity
  8
BEMASSUNG
 62
     0
100
AcDbTrace
 10
6.555003275721639
 20
79.57760536195677
 30
0.0
 11
6.521752093744769
 21
79.60271452379568
 31
0.0
 12
6.613705170249913
 22
79.68991348880684
 32
0.0
 13
6.613705170249913
 23
79.68991348880684
 33
0.0
  0
SOLID
  5
1684
330
167B
100
AcDbEntity
  8
BEMASSUNG
 62
     0
100
AcDbTrace
 10
18.84532872427836
 20
95.92239463804323
 30
0.0
 11
18.87857990625523
 21
95.89728547620432
 31
0.0
 12
18.78662682975009
 22
95.81008651119316
 32
0.0
 13
18.78662682975009
 23
95.81008651119316
 33
0.0
  0
POINT
  5
1685
330
167B
100
AcDbEntity
  8
Defpoints
 62
     0
100
AcDbPoint
 10
18.78662682975009
 20
95.81008651119316
 30
0.0
  0
POINT
  5
1686
330
167B
100
AcDbEntity
  8
Defpoints
 62
     0
100
AcDbPoint
 10
6.613705170249913
 20
79.68991348880684
 30
0.0
  0
ENDBLK
  5
167D
330
167B
100
AcDbEntity
  8
0
100
AcDbBlockEnd
  0
BLOCK
  5
1688
330
1687
100
AcDbEntity
  8
0
100
AcDbBlockBegin
  2
*D10
 70
     1
 10
0.0
 20
0.0
 30
0.0
  3
*D10
  1
*D10
  0
LINE
  5
168A
330
1687
100
AcDbEntity
  8
BEMASSUNG
 62
     0
370
    -2
100
AcDbLine
 10
10.60016599999997
 20
97.31249999999999
 30
0.0
 11
10.60016599999997
 21
98.97499999999998
 31
0.0
  0
LINE
  5
168B
330
1687
100
AcDbEntity
  8
BEMASSUNG
 62
     0
370
    -2
100
AcDbLine
 10
14.80016599999998
 20
97.3125
 30
0.0
 11
14.80016599999998
 21
98.97499999999998
 31
0.0
  0
LINE
  5
168C
330
1687
100
AcDbEntity
  8
BEMASSUNG
 62
     0
370
    -2
100
AcDbLine
 10
10.72516599999997
 20
98.84999999999998
 30
0.0
 11
14.67516599999998
 21
98.84999999999998
 31
0.0
  0
SOLID
  5
168D
330
1687
100
AcDbEntity
  8
BEMASSUNG
 62
     0
100
AcDbTrace
 10
10.72516599999997
 20
98.87083333333331
 30
0.0
 11
10.72516599999997
 21
98.82916666666665
 31
0.0
 12
10.60016599999997
 22
98.84999999999998
 32
0.0
 13
10.60016599999997
 23
98.84999999999998
 33
0.0
  0
SOLID
  5
168E
330
1687
100
AcDbEntity
  8
BEMASSUNG
 62
     0
100
AcDbTrace
 10
14.67516599999998
 20
98.82916666666665
 30
0.0
 11
14.67516599999998
 21
98.87083333333331
 31
0.0
 12
14.80016599999998
 22
98.84999999999998
 32
0.0
 13
14.80016599999998
 23
98.84999999999998
 33
0.0
  0
MTEXT
  5
168F
330
1687
100
AcDbEntity
  8
BEMASSUNG
 62
     0
100
AcDbMText
 10
12.70016599999998
 20
100.56875
 30
0.0
 40
3.0
 41
0.0
 46
0.0
 71
     5
 72
     1
  1
\A1;4.200
  7
QCADDimTextStyle
 73
     1
 44
1.0
  0
POINT
  5
1690
330
1687
100
AcDbEntity
  8
Defpoints
 62
     0
100
AcDbPoint
 10
10.60016599999997
 20
97.24999999999999
 30
0.0
  0
POINT
  5
1691
330
1687
100
AcDbEntity
  8
Defpoints
 62
     0
100
AcDbPoint
 10
14.80016599999998
 20
97.25
 30
0.0
  0
POINT
  5
1692
330
1687
100
AcDbEntity
  8
Defpoints
 62
     0
100
AcDbPoint
 10
14.80016599999998
 20
98.84999999999998
 30
0.0
  0
ENDBLK
  5
1689
330
1687
100
AcDbEntity
  8
0
100
AcDbBlockEnd
  0
BLOCK
  5
1694
330
1693
100
AcDbEntity
  8
0
100
AcDbBlockBegin
  2
*D11
 70
     1
 10
0.0
 20
0.0
 30
0.0
  3
*D11
  1
*D11
  0
LINE
  5
1696
330
1693
100
AcDbEntity
  8
BEMASSUNG
 62
     0
370
    -2
100
AcDbLine
 10
16.19195163989645
 20
97.25
 30
0.0
 11
27.125
 21
97.25
 31
0.0
  0
LINE
  5
1697
330
1693
100
AcDbEntity
  8
BEMASSUNG
 62
     0
370
    -2
100
AcDbLine
 10
16.19195268420775
 20
78.25000037697288
 30
0.0
 11
27.125
 21
78.25000037697288
 31
0.0
  0
LINE
  5
1698
330
1693
100
AcDbEntity
  8
BEMASSUNG
 62
     0
370
    -2
100
AcDbLine
 10
27.0
 20
97.125
 30
0.0
 11
27.0
 21
78.37500037697288
 31
0.0
  0
SOLID
  5
1699
330
1693
100
AcDbEntity
  8
BEMASSUNG
 62
     0
100
AcDbTrace
 10
27.02083333333333
 20
97.125
 30
0.0
 11
26.97916666666667
 21
97.125
 31
0.0
 12
27.0
 22
97.25
 32
0.0
 13
27.0
 23
97.25
 33
0.0
  0
SOLID
  5
169A
330
1693
100
AcDbEntity
  8
BEMASSUNG
 62
     0
100
AcDbTrace
 10
26.97916666666667
 20
78.37500037697288
 30
0.0
 11
27.02083333333333
 21
78.37500037697288
 31
0.0
 12
27.0
 22
78.25000037697288
 32
0.0
 13
27.0
 23
78.25000037697288
 33
0.0
  0
MTEXT
  5
169B
330
1693
100
AcDbEntity
  8
BEMASSUNG
 62
     0
100
AcDbMText
 10
25.4375
 20
87.75000018848644
 30
0.0
 40
3.0
 41
0.0
 46
0.0
 71
     5
 72
     1
  1
\A1;19.000
  7
QCADDimTextStyle
 11
0.0
 21
1.0
 31
0.0
 73
     1
 44
1.0
  0
POINT
  5
169C
330
1693
100
AcDbEntity
  8
Defpoints
 62
     0
100
AcDbPoint
 10
16.12945163989645
 20
97.25
 30
0.0
  0
POINT
  5
169D
330
1693
100
AcDbEntity
  8
Defpoints
 62
     0
100
AcDbPoint
 10
16.12945268420775
 20
78.25000037697288
 30
0.0
  0
POINT
  5
169E
330
1693
100
AcDbEntity
  8
Defpoints
 62
     0
100
AcDbPoint
 10
27.0
 20
78.25000037697288
 30
0.0
  0
ENDBLK
  5
1695
330
1693
100
AcDbEntity
  8
0
100
AcDbBlockEnd
  0
BLOCK
  5
16A0
330
169F
100
AcDbEntity
  8
0
100
AcDbBlockBegin
  2
*D12
 70
     1
 10
0.0
 20
0.0
 30
0.0
  3
*D12
  1
*D12
  0
LINE
  5
16A2
330
169F
100
AcDbEntity
  8
BEMASSUNG
 62
     0
370
    -2
100
AcDbLine
 10
1.637665999999983
 20
86.65000000000002
 30
0.0
 11
-0.125
 21
86.65000000000002
 31
0.0
  0
LINE
  5
16A3
330
169F
100
AcDbEntity
  8
BEMASSUNG
 62
     0
370
    -2
100
AcDbLine
 10
1.637665999999987
 20
88.84999999999998
 30
0.0
 11
-0.1249999999999999
 21
88.84999999999998
 31
0.0
  0
LINE
  5
16A4
330
169F
100
AcDbEntity
  8
BEMASSUNG
 62
     0
370
    -2
100
AcDbLine
 10
0.0
 20
86.77500000000002
 30
0.0
 11
0.0000000000000001
 21
88.72499999999998
 31
0.0
  0
SOLID
  5
16A5
330
169F
100
AcDbEntity
  8
BEMASSUNG
 62
     0
100
AcDbTrace
 10
-0.0208333333333333
 20
86.77500000000002
 30
0.0
 11
0.0208333333333333
 21
86.77500000000002
 31
0.0
 12
0.0
 22
86.65000000000002
 32
0.0
 13
0.0
 23
86.65000000000002
 33
0.0
  0
SOLID
  5
16A6
330
169F
100
AcDbEntity
  8
BEMASSUNG
 62
     0
100
AcDbTrace
 10
0.0208333333333335
 20
88.72499999999998
 30
0.0
 11
-0.0208333333333332
 21
88.72499999999998
 31
0.0
 12
0.0000000000000001
 22
88.84999999999998
 32
0.0
 13
0.0000000000000001
 23
88.84999999999998
 33
0.0
  0
MTEXT
  5
16A7
330
169F
100
AcDbEntity
  8
BEMASSUNG
 62
     0
100
AcDbMText
 10
-1.71875
 20
87.75
 30
0.0
 40
3.0
 41
0.0
 46
0.0
 71
     5
 72
     1
  1
\A1;2.200
  7
QCADDimTextStyle
 73
     1
 44
1.0
  0
POINT
  5
16A8
330
169F
100
AcDbEntity
  8
Defpoints
 62
     0
100
AcDbPoint
 10
1.700165999999983
 20
86.65000000000002
 30
0.0
  0
POINT
  5
16A9
330
169F
100
AcDbEntity
  8
Defpoints
 62
     0
100
AcDbPoint
 10
1.700165999999987
 20
88.84999999999998
 30
0.0
  0
POINT
  5
16AA
330
169F
100
AcDbEntity
  8
Defpoints
 62
     0
100
AcDbPoint
 10
0.0000000000000001
 20
88.84999999999998
 30
0.0
  0
ENDBLK
  5
16A1
330
169F
100
AcDbEntity
  8
0
100
AcDbBlockEnd
  0
BLOCK
  5
16AC
330
16AB
100
AcDbEntity
  8
0
100
AcDbBlockBegin
  2
*D13
 70
     1
 10
0.0
 20
0.0
 30
0.0
  3
*D13
  1
*D13
  0
LINE
  5
16AE
330
16AB
100
AcDbEntity
  8
BEMASSUNG
 62
     0
370
    -2
100
AcDbLine
 10
12.70016599999998
 20
87.6875
 30
0.0
 11
12.70016599999998
 21
73.72499999999998
 31
0.0
  0
LINE
  5
16AF
330
16AB
100
AcDbEntity
  8
BEMASSUNG
 62
     0
370
    -2
100
AcDbLine
 10
1.700165999999983
 20
86.58750000000002
 30
0.0
 11
1.700165999999983
 21
73.72499999999998
 31
0.0
  0
LINE
  5
16B0
330
16AB
100
AcDbEntity
  8
BEMASSUNG
 62
     0
370
    -2
100
AcDbLine
 10
12.57516599999998
 20
73.84999999999998
 30
0.0
 11
1.825165999999983
 21
73.84999999999998
 31
0.0
  0
SOLID
  5
16B1
330
16AB
100
AcDbEntity
  8
BEMASSUNG
 62
     0
100
AcDbTrace
 10
12.57516599999998
 20
73.82916666666665
 30
0.0
 11
12.57516599999998
 21
73.87083333333331
 31
0.0
 12
12.70016599999998
 22
73.84999999999998
 32
0.0
 13
12.70016599999998
 23
73.84999999999998
 33
0.0
  0
SOLID
  5
16B2
330
16AB
100
AcDbEntity
  8
BEMASSUNG
 62
     0
100
AcDbTrace
 10
1.825165999999983
 20
73.87083333333331
 30
0.0
 11
1.825165999999983
 21
73.82916666666665
 31
0.0
 12
1.700165999999983
 22
73.84999999999998
 32
0.0
 13
1.700165999999983
 23
73.84999999999998
 33
0.0
  0
MTEXT
  5
16B3
330
16AB
100
AcDbEntity
  8
BEMASSUNG
 62
     0
100
AcDbMText
 10
7.200165999999983
 20
69.13124999999998
 30
0.0
 40
3.0
 41
0.0
 46
0.0
 71
     5
 72
     1
  1
\A1;11.000
  7
QCADDimTextStyle
 73
     1
 44
1.0
  0
POINT
  5
16B4
330
16AB
100
AcDbEntity
  8
Defpoints
 62
     0
100
AcDbPoint
 10
12.70016599999998
 20
87.75
 30
0.0
  0
POINT
  5
16B5
330
16AB
100
AcDbEntity
  8
Defpoints
 62
     0
100
AcDbPoint
 10
1.700165999999983
 20
86.65000000000002
 30
0.0
  0
POINT
  5
16B6
330
16AB
100
AcDbEntity
  8
Defpoints
 62
     0
100
AcDbPoint
 10
1.700165999999983
 20
73.84999999999998
 30
0.0
  0
ENDBLK
  5
16AD
330
16AB
100
AcDbEntity
  8
0
100
AcDbBlockEnd
  0
BLOCK
  5
16B8
330
16B7
100
AcDbEntity
  8
0
100
AcDbBlockBegin
  2
*D14
 70
     1
 10
0.0
 20
0.0
 30
0.0
  3
*D14
  1
*D14
  0
LINE
  5
16BA
330
16B7
100
AcDbEntity
  8
BEMASSUNG
 62
     0
370
    -2
100
AcDbLine
 10
12.70016599999998
 20
87.6875
 30
0.0
 11
12.70016599999998
 21
69.72499999999998
 31
0.0
  0
LINE
  5
16BB
330
16B7
100
AcDbEntity
  8
BEMASSUNG
 62
     0
370
    -2
100
AcDbLine
 10
-7.449862999999999
 20
87.6875
 30
0.0
 11
-7.449862999999999
 21
69.72499999999998
 31
0.0
  0
LINE
  5
16BC
330
16B7
100
AcDbEntity
  8
BEMASSUNG
 62
     0
370
    -2
100
AcDbLine
 10
12.57516599999998
 20
69.84999999999998
 30
0.0
 11
-7.324862999999999
 21
69.84999999999998
 31
0.0
  0
SOLID
  5
16BD
330
16B7
100
AcDbEntity
  8
BEMASSUNG
 62
     0
100
AcDbTrace
 10
12.57516599999998
 20
69.82916666666665
 30
0.0
 11
12.57516599999998
 21
69.87083333333331
 31
0.0
 12
12.70016599999998
 22
69.84999999999998
 32
0.0
 13
12.70016599999998
 23
69.84999999999998
 33
0.0
  0
SOLID
  5
16BE
330
16B7
100
AcDbEntity
  8
BEMASSUNG
 62
     0
100
AcDbTrace
 10
-7.324862999999999
 20
69.87083333333331
 30
0.0
 11
-7.324862999999999
 21
69.82916666666665
 31
0.0
 12
-7.449862999999999
 22
69.84999999999998
 32
0.0
 13
-7.449862999999999
 23
69.84999999999998
 33
0.0
  0
MTEXT
  5
16BF
330
16B7
100
AcDbEntity
  8
BEMASSUNG
 62
     0
100
AcDbMText
 10
2.625151499999992
 20
71.41249999999998
 30
0.0
 40
3.0
 41
0.0
 46
0.0
 71
     5
 72
     1
  1
\A1;20.150
  7
QCADDimTextStyle
 73
     1
 44
1.0
  0
POINT
  5
16C0
330
16B7
100
AcDbEntity
  8
Defpoints
 62
     0
100
AcDbPoint
 10
12.70016599999998
 20
87.75
 30
0.0
  0
POINT
  5
16C1
330
16B7
100
AcDbEntity
  8
Defpoints
 62
     0
100
AcDbPoint
 10
-7.449862999999999
 20
87.75
 30
0.0
  0
POINT
  5
16C2
330
16B7
100
AcDbEntity
  8
Defpoints
 62
     0
100
AcDbPoint
 10
-7.449862999999999
 20
69.84999999999998
 30
0.0
  0
ENDBLK
  5
16B9
330
16B7
100
AcDbEntity
  8
0
100
AcDbBlockEnd
  0
BLOCK
  5
16C4
330
16C3
100
AcDbEntity
  8
0
100
AcDbBlockBegin
  2
*D15
 70
     1
 10
0.0
 20
0.0
 30
0.0
  3
*D15
  1
*D15
  0
LINE
  5
16C6
330
16C3
100
AcDbEntity
  8
BEMASSUNG
 62
     0
370
    -2
100
AcDbLine
 10
12.762666
 20
87.74999999999999
 30
0.0
 11
23.12499999999997
 21
87.74999999999999
 31
0.0
  0
LINE
  5
16C7
330
16C3
100
AcDbEntity
  8
BEMASSUNG
 62
     0
370
    -2
100
AcDbLine
 10
12.762666
 20
-2.999968999999993
 30
0.0
 11
23.12499999999996
 21
-2.999968999999993
 31
0.0
  0
LINE
  5
16C8
330
16C3
100
AcDbEntity
  8
BEMASSUNG
 62
     0
370
    -2
100
AcDbLine
 10
22.99999999999997
 20
87.62499999999999
 30
0.0
 11
22.99999999999996
 21
-2.874968999999993
 31
0.0
  0
SOLID
  5
16C9
330
16C3
100
AcDbEntity
  8
BEMASSUNG
 62
     0
100
AcDbTrace
 10
23.0208333333333
 20
87.62499999999999
 30
0.0
 11
22.97916666666664
 21
87.62499999999999
 31
0.0
 12
22.99999999999997
 22
87.74999999999999
 32
0.0
 13
22.99999999999997
 23
87.74999999999999
 33
0.0
  0
SOLID
  5
16CA
330
16C3
100
AcDbEntity
  8
BEMASSUNG
 62
     0
100
AcDbTrace
 10
22.97916666666663
 20
-2.874968999999993
 30
0.0
 11
23.0208333333333
 21
-2.874968999999993
 31
0.0
 12
22.99999999999996
 22
-2.999968999999993
 32
0.0
 13
22.99999999999996
 23
-2.999968999999993
 33
0.0
  0
MTEXT
  5
16CB
330
16C3
100
AcDbEntity
  8
BEMASSUNG
 62
     0
100
AcDbMText
 10
21.43749999999997
 20
42.3750155
 30
0.0
 40
3.0
 41
0.0
 46
0.0
 71
     5
 72
     1
  1
\A1;90.750
  7
QCADDimTextStyle
 11
7.829674693994665E-17
 21
1.0
 31
0.0
 73
     1
 44
1.0
  0
POINT
  5
16CC
330
16C3
100
AcDbEntity
  8
Defpoints
 62
     0
100
AcDbPoint
 10
12.700166
 20
87.74999999999999
 30
0.0
  0
POINT
  5
16CD
330
16C3
100
AcDbEntity
  8
Defpoints
 62
     0
100
AcDbPoint
 10
12.700166
 20
-2.999968999999993
 30
0.0
  0
POINT
  5
16CE
330
16C3
100
AcDbEntity
  8
Defpoints
 62
     0
100
AcDbPoint
 10
22.99999999999996
 20
-2.999968999999993
 30
0.0
  0
ENDBLK
  5
16C5
330
16C3
100
AcDbEntity
  8
0
100
AcDbBlockEnd
  0
BLOCK
  5
16D0
330
16CF
100
AcDbEntity
  8
0
100
AcDbBlockBegin
  2
*D16
 70
     1
 10
0.0
 20
0.0
 30
0.0
  3
*D16
  1
*D16
  0
LINE
  5
16D2
330
16CF
100
AcDbEntity
  8
BEMASSUNG
 62
     0
370
    -2
100
AcDbLine
 10
12.762666
 20
35.56
 30
0.0
 11
16.12499999999999
 21
35.56
 31
0.0
  0
LINE
  5
16D3
330
16CF
100
AcDbEntity
  8
BEMASSUNG
 62
     0
370
    -2
100
AcDbLine
 10
17.881333
 20
-2.999968999999993
 30
0.0
 11
15.87499999999999
 21
-2.999968999999993
 31
0.0
  0
LINE
  5
16D4
330
16CF
100
AcDbEntity
  8
BEMASSUNG
 62
     0
370
    -2
100
AcDbLine
 10
15.99999999999999
 20
35.435
 30
0.0
 11
15.99999999999999
 21
-2.874968999999993
 31
0.0
  0
SOLID
  5
16D5
330
16CF
100
AcDbEntity
  8
BEMASSUNG
 62
     0
100
AcDbTrace
 10
16.02083333333333
 20
35.435
 30
0.0
 11
15.97916666666666
 21
35.435
 31
0.0
 12
15.99999999999999
 22
35.56
 32
0.0
 13
15.99999999999999
 23
35.56
 33
0.0
  0
SOLID
  5
16D6
330
16CF
100
AcDbEntity
  8
BEMASSUNG
 62
     0
100
AcDbTrace
 10
15.97916666666666
 20
-2.874968999999993
 30
0.0
 11
16.02083333333333
 21
-2.874968999999993
 31
0.0
 12
15.99999999999999
 22
-2.999968999999993
 32
0.0
 13
15.99999999999999
 23
-2.999968999999993
 33
0.0
  0
MTEXT
  5
16D7
330
16CF
100
AcDbEntity
  8
BEMASSUNG
 62
     0
100
AcDbMText
 10
14.43749999999999
 20
16.2800155
 30
0.0
 40
3.0
 41
0.0
 46
0.0
 71
     5
 72
     1
  1
\A1;38.560
  7
QCADDimTextStyle
 11
4.606738245563037E-17
 21
1.0
 31
0.0
 73
     1
 44
1.0
  0
POINT
  5
16D8
330
16CF
100
AcDbEntity
  8
Defpoints
 62
     0
100
AcDbPoint
 10
12.700166
 20
35.56
 30
0.0
  0
POINT
  5
16D9
330
16CF
100
AcDbEntity
  8
Defpoints
 62
     0
100
AcDbPoint
 10
17.943833
 20
-2.999968999999993
 30
0.0
  0
POINT
  5
16DA
330
16CF
100
AcDbEntity
  8
Defpoints
 62
     0
100
AcDbPoint
 10
15.99999999999999
 20
-2.999968999999993
 30
0.0
  0
ENDBLK
  5
16D1
330
16CF
100
AcDbEntity
  8
0
100
AcDbBlockEnd
  0
ENDSEC
  0
SECTION
  2
ENTITIES
  0
CIRCLE
  5
1337
330
154A
100
AcDbEntity
  8
Cutout
100
AcDbCircle
 10
12.700166
 20
35.56
 30
0.0
 40
2.5
  0
LINE
  5
1338
330
154A
100
AcDbEntity
  8
Origins
  6
CENTERLINE
100
AcDbLine
 10
14.87016600000002
 20
35.56
 30
0.0
 11
10.53016600000001
 21
35.56
 31
0.0
  0
LINE
  5
1339
330
154A
100
AcDbEntity
  8
Origins
  6
CENTERLINE
100
AcDbLine
 10
12.700166
 20
33.38999999999999
 30
0.0
 11
12.700166
 21
37.72999999999998
 31
0.0
  0
DIMENSION
  5
133A
330
154A
100
AcDbEntity
  8
BEMASSUNG
100
AcDbDimension
280
     0
  2
*D2
 10
-7.449863000000001
 20
35.75999999999999
 30
0.0
 11
2.625151499999999
 21
37.32249999999999
 31
0.0
 70
    32
 71
     5
 42
20.150029
 73
     0
 74
     0
 75
     0
  3
QCADDimStyle
100
AcDbAlignedDimension
 13
12.700166
 23
35.56
 33
0.0
 14
-7.449863000000001
 24
35.56
 34
0.0
100
AcDbRotatedDimension
1001
ACAD
1000
DSTYLE
1002
{
1070
   279
1070
     2
1070
   171
1070
     0
1070
    41
1040
0.125
1070
   176
1070
     0
1070
   177
1070
     0
1070
   178
1070
     0
1070
   271
1070
     3
1070
    43
1040
0.25
1070
    44
1040
0.125
1070
   147
1040
0.0625
1070
   272
1070
     3
1070
    48
1040
-0.005
1070
   172
1070
     1
1070
    47
1040
0.005
1070
   140
1040
3.0
1002
}
  0
DIMENSION
  5
133B
330
154A
100
AcDbEntity
  8
BEMASSUNG
100
AcDbDimension
280
     0
  2
*D3
 10
13.31760122143656
 20
37.982555210378
 30
0.0
 11
3.860422133553045
 21
31.5506230161306
 31
0.0
 70
    35
 71
     5
 42
5.000000000000006
 73
     0
 74
     0
 75
     0
  3
QCADDimStyle
100
AcDbDiametricDimension
 15
12.08273077856344
 25
33.13744478962199
 35
0.0
 40
0.0
1001
ACAD
1000
DSTYLE
1002
{
1070
   279
1070
     2
1070
   171
1070
     0
1070
    41
1040
0.125
1070
   176
1070
     0
1070
   177
1070
     0
1070
   178
1070
     0
1070
   271
1070
     3
1070
    43
1040
0.25
1070
    44
1040
0.125
1070
   147
1040
0.0625
1070
   272
1070
     3
1070
    48
1040
-0.005
1070
   172
1070
     1
1070
    47
1040
0.005
1070
   140
1040
3.0
1002
}
  0
LINE
  5
14D
330
154A
100
AcDbEntity
  8
Dimension
  6
Continuous
100
AcDbLine
 10
32.850195
 20
125.399569
 30
0.0
 11
32.850195
 21
-2.999968999999993
 31
0.0
  0
LINE
  5
14F
330
154A
100
AcDbEntity
  8
Dimension
  6
Continuous
100
AcDbLine
 10
-7.449863000000001
 20
-2.999968999999993
 30
0.0
 11
-7.449863000000001
 21
125.399569
 31
0.0
  0
LINE
  5
156
330
154A
100
AcDbEntity
  8
Dimension
  6
Continuous
100
AcDbLine
 10
-7.449863000000001
 20
125.399569
 30
0.0
 11
32.850195
 21
125.399569
 31
0.0
  0
LINE
  5
158
330
154A
100
AcDbEntity
  8
Dimension
  6
Continuous
100
AcDbLine
 10
32.850195
 20
-2.999968999999993
 30
0.0
 11
-7.449863000000001
 21
-2.999968999999993
 31
0.0
  0
LINE
  5
15A
330
154A
100
AcDbEntity
  8
Cutout
  6
Continuous
 62
     1
420
 16711680
100
AcDbLine
 10
2.445312000000001
 20
120.749639
 30
0.0
 11
-2.445312999999999
 21
120.749639
 31
0.0
  0
LINE
  5
15B
330
154A
100
AcDbEntity
  8
Cutout
  6
Continuous
 62
     1
420
 16711680
100
AcDbLine
 10
2.445312000000001
 20
124.049649
 30
0.0
 11
-2.445312999999999
 21
124.049649
 31
0.0
  0
ARC
  5
15C
330
154A
100
AcDbEntity
  8
Cutout
  6
Continuous
 62
     1
420
 16711680
100
AcDbCircle
 10
0.0
 20
122.399839
 30
0.0
 40
2.9500008
100
AcDbArc
 50
325.99108
 51
34.00891000000004
  0
ARC
  5
15D
330
154A
100
AcDbEntity
  8
Cutout
  6
Continuous
 62
     1
420
 16711680
100
AcDbCircle
 10
0.0
 20
122.399839
 30
0.0
 40
2.9500008
100
AcDbArc
 50
145.99103
 51
214.00884
  0
LINE
  5
15E
330
154A
100
AcDbEntity
  8
Origins
  6
CENTERLINE
100
AcDbLine
 10
3.5
 20
122.399629
 30
0.0
 11
-3.5
 21
122.399629
 31
0.0
  0
LINE
  5
15F
330
154A
100
AcDbEntity
  8
Cutout
  6
Continuous
 62
     1
420
 16711680
100
AcDbLine
 10
-2.445312999999999
 20
1.650147000000004
 30
0.0
 11
2.445312000000001
 21
1.650147000000004
 31
0.0
  0
LINE
  5
160
330
154A
100
AcDbEntity
  8
Cutout
  6
Continuous
 62
     1
420
 16711680
100
AcDbLine
 10
-2.445312999999999
 20
-1.649901999999997
 30
0.0
 11
2.445312000000001
 21
-1.649901999999997
 31
0.0
  0
ARC
  5
161
330
154A
100
AcDbEntity
  8
Cutout
  6
Continuous
 62
     1
420
 16711680
100
AcDbCircle
 10
0.0
 20
-0.0001519999999999
 30
0.0
 40
2.9500008
100
AcDbArc
 50
325.99108
 51
34.00891000000004
  0
ARC
  5
162
330
154A
100
AcDbEntity
  8
Cutout
  6
Continuous
 62
     1
420
 16711680
100
AcDbCircle
 10
0.0
 20
-0.0001519999999999
 30
0.0
 40
2.9500008
100
AcDbArc
 50
145.99109
 51
214.0089
  0
LINE
  5
163
330
154A
100
AcDbEntity
  8
Origins
  6
CENTERLINE
100
AcDbLine
 10
-3.5
 20
0.0
 30
0.0
 11
3.5
 21
0.0
 31
0.0
  0
LINE
  5
164
330
154A
100
AcDbEntity
  8
Origins
  6
CENTERLINE
100
AcDbLine
 10
0.0
 20
2.0
 30
0.0
 11
0.0
 21
-2.0
 31
0.0
  0
LINE
  5
165
330
154A
100
AcDbEntity
  8
Origins
  6
CENTERLINE
100
AcDbLine
 10
0.0
 20
124.399659
 30
0.0
 11
0.0
 21
120.399659
 31
0.0
  0
LINE
  5
166
330
154A
100
AcDbEntity
  8
Cutout
  6
Continuous
 62
     1
420
 16711680
100
AcDbLine
 10
2.445461000000002
 20
120.749639
 30
0.0
 11
-2.445286000000003
 21
120.749639
 31
0.0
  0
LINE
  5
167
330
154A
100
AcDbEntity
  8
Cutout
  6
Continuous
 62
     1
420
 16711680
100
AcDbLine
 10
2.445521999999997
 20
124.049649
 30
0.0
 11
-2.445286000000003
 21
124.049649
 31
0.0
  0
ARC
  5
168
330
154A
100
AcDbEntity
  8
Cutout
  6
Continuous
 62
     1
420
 16711680
100
AcDbCircle
 10
0.0001180000000005
 20
122.399839
 30
0.0
 40
2.9500008
100
AcDbArc
 50
325.99108
 51
34.00891000000004
  0
ARC
  5
169
330
154A
100
AcDbEntity
  8
Cutout
  6
Continuous
 62
     1
420
 16711680
100
AcDbCircle
 10
0.0001180000000005
 20
122.399839
 30
0.0
 40
2.9500008
100
AcDbArc
 50
145.99103
 51
214.00884
  0
LINE
  5
16A
330
154A
100
AcDbEntity
  8
Cutout
  6
Continuous
 62
     1
420
 16711680
100
AcDbLine
 10
-2.445286000000003
 20
1.650147000000004
 30
0.0
 11
2.445521999999997
 21
1.650147000000004
 31
0.0
  0
LINE
  5
16B
330
154A
100
AcDbEntity
  8
Cutout
  6
Continuous
 62
     1
420
 16711680
100
AcDbLine
 10
-2.445286000000003
 20
-1.649901999999997
 30
0.0
 11
2.445521999999997
 21
-1.649901999999997
 31
0.0
  0
ARC
  5
16C
330
154A
100
AcDbEntity
  8
Cutout
  6
Continuous
 62
     1
420
 16711680
100
AcDbCircle
 10
0.0001180000000005
 20
-0.0001519999999999
 30
0.0
 40
2.9500008
100
AcDbArc
 50
325.99108
 51
34.00891000000004
  0
ARC
  5
16D
330
154A
100
AcDbEntity
  8
Cutout
  6
Continuous
 62
     1
420
 16711680
100
AcDbCircle
 10
0.0001180000000005
 20
-0.0001519999999999
 30
0.0
 40
2.9500008
100
AcDbArc
 50
145.99109
 51
214.0089
  0
LINE
  5
16E
330
154A
100
AcDbEntity
  8
Origins
  6
CENTERLINE
100
AcDbLine
 10
-3.499881999999999
 20
0.0
 30
0.0
 11
3.500118000000001
 21
0.0
 31
0.0
  0
LINE
  5
16F
330
154A
100
AcDbEntity
  8
Origins
  6
CENTERLINE
100
AcDbLine
 10
0.0001180000000005
 20
2.0
 30
0.0
 11
0.0001180000000005
 21
-2.0
 31
0.0
  0
DIMENSION
  5
170
330
154A
100
AcDbEntity
  8
BEMASSUNG
  6
Continuous
100
AcDbDimension
280
     0
  2
*D4
 10
32.850195
 20
-15.968969
 30
0.0
 11
12.700166
 21
-13.217969
 31
0.0
 70
   160
 71
     5
 42
40.300058
 73
     0
 74
     0
 75
     0
  3
QCADDimStyle
100
AcDbAlignedDimension
 13
-7.449863000000001
 23
-3.0
 33
0.0
 14
32.850195
 24
-2.999968999999993
 34
0.0
100
AcDbRotatedDimension
1001
ACAD
1000
DSTYLE
1002
{
1070
   279
1070
     2
1070
   171
1070
     0
1070
    41
1040
0.125
1070
   176
1070
     0
1070
   177
1070
     0
1070
   178
1070
     0
1070
   271
1070
     3
1070
    43
1040
0.25
1070
    44
1040
0.125
1070
   147
1040
0.0625
1070
   272
1070
     3
1070
    48
1040
-0.005
1070
   172
1070
     1
1070
    47
1040
0.005
1070
   140
1040
3.0
1002
}
  0
DIMENSION
  5
171
330
154A
100
AcDbEntity
  8
BEMASSUNG
  6
Continuous
100
AcDbDimension
280
     0
  2
*D5
 10
0.0
 20
129.538029
 30
0.0
 11
10.58913699999999
 21
132.289029
 31
0.0
 70
   160
 71
     5
 42
7.449863000000001
 73
     0
 74
     0
 75
     0
  3
QCADDimStyle
100
AcDbAlignedDimension
 13
-7.449863000000001
 23
125.399569
 33
0.0
 14
0.0
 24
124.399659
 34
0.0
100
AcDbRotatedDimension
1001
ACAD
1000
DSTYLE
1002
{
1070
   279
1070
     2
1070
   171
1070
     0
1070
    41
1040
0.125
1070
   176
1070
     0
1070
   177
1070
     0
1070
   178
1070
     0
1070
   271
1070
     3
1070
    43
1040
0.25
1070
    44
1040
0.125
1070
   147
1040
0.0625
1070
   272
1070
     3
1070
    48
1040
-0.005
1070
   172
1070
     1
1070
    47
1040
0.005
1070
   140
1040
3.0
1002
}
  0
DIMENSION
  5
173
330
154A
100
AcDbEntity
  8
BEMASSUNG
  6
Continuous
100
AcDbDimension
280
     0
  2
*D6
 10
41.01513699999987
 20
-0.0000000000000023
 30
0.0
 11
38.26413700000001
 21
61.19981900000001
 31
0.0
 70
   160
 71
     5
 42
122.399629
 73
     0
 74
     0
 75
     0
  3
QCADDimStyle
100
AcDbAlignedDimension
 13
2.950119000000001
 23
122.399629
 33
0.0
 14
3.500118000000001
 24
0.0
 34
0.0
 50
90.0
100
AcDbRotatedDimension
1001
ACAD
1000
DSTYLE
1002
{
1070
   279
1070
     2
1070
   171
1070
     0
1070
    41
1040
0.125
1070
   176
1070
     0
1070
   177
1070
     0
1070
   178
1070
     0
1070
   271
1070
     3
1070
    43
1040
0.25
1070
    44
1040
0.125
1070
   147
1040
0.0625
1070
   272
1070
     3
1070
    48
1040
-0.005
1070
   172
1070
     1
1070
    47
1040
0.005
1070
   140
1040
3.0
1002
}
  0
DIMENSION
  5
174
330
154A
100
AcDbEntity
  8
BEMASSUNG
  6
Continuous
100
AcDbDimension
280
     0
  2
*D7
 10
50.29414099999963
 20
-2.999968999999996
 30
0.0
 11
47.54314100000001
 21
61.199799
 31
0.0
 70
   160
 71
     5
 42
128.399538
 73
     0
 74
     0
 75
     0
  3
QCADDimStyle
100
AcDbAlignedDimension
 13
32.850195
 23
125.399569
 33
0.0
 14
32.850195
 24
-2.999968999999993
 34
0.0
 50
270.0
100
AcDbRotatedDimension
1001
ACAD
1000
DSTYLE
1002
{
1070
   279
1070
     2
1070
   171
1070
     0
1070
    41
1040
0.125
1070
   176
1070
     0
1070
   177
1070
     0
1070
   178
1070
     0
1070
   271
1070
     3
1070
    43
1040
0.25
1070
    44
1040
0.125
1070
   147
1040
0.0625
1070
   272
1070
     3
1070
    48
1040
-0.005
1070
   172
1070
     1
1070
    47
1040
0.005
1070
   140
1040
3.0
1002
}
  0
DIMENSION
  5
175
330
154A
100
AcDbEntity
  8
BEMASSUNG
  6
Continuous
100
AcDbDimension
280
     0
  2
*D8
 10
41.015137
 20
125.399569
 30
0.0
 11
38.26413700000001
 21
135.916029
 31
0.0
 70
   160
 71
     5
 42
2.99991
 73
     0
 74
     0
 75
     0
  3
QCADDimStyle
100
AcDbAlignedDimension
 13
28.35000100000001
 23
122.399659
 33
0.0
 14
32.850195
 24
125.399569
 34
0.0
 50
90.0
100
AcDbRotatedDimension
1001
ACAD
1000
DSTYLE
1002
{
1070
   279
1070
     2
1070
   171
1070
     0
1070
    41
1040
0.125
1070
   176
1070
     0
1070
   177
1070
     0
1070
   178
1070
     0
1070
   271
1070
     3
1070
    43
1040
0.25
1070
    44
1040
0.125
1070
   147
1040
0.0625
1070
   272
1070
     3
1070
    48
1040
-0.005
1070
   172
1070
     1
1070
    47
1040
0.005
1070
   140
1040
3.0
1002
}
  0
MTEXT
  5
35A
330
154A
100
AcDbEntity
  8
INFO
100
AcDbMText
 10
-7.0
 20
-5.0
 30
0.0
 40
3.0
 41
0.0
 46
0.0
 71
     1
 72
     1
  1
Material: AlMg3 t=2,5mm
  7
textstyle11
 73
     1
 44
1.0
  0
LINE
  5
110B
330
154A
100
AcDbEntity
  8
Origins
  6
CENTERLINE
100
AcDbLine
 10
14.87016600000002
 20
87.74999999999999
 30
0.0
 11
10.53016600000001
 21
87.74999999999999
 31
0.0
  0
LINE
  5
110C
330
154A
100
AcDbEntity
  8
Origins
  6
CENTERLINE
100
AcDbLine
 10
12.700166
 20
85.57999999999998
 30
0.0
 11
12.700166
 21
89.91999999999997
 31
0.0
  0
INSERT
  5
110D
330
154A
100
AcDbEntity
  8
Cutout
100
AcDbBlockReference
  2
AusschnittR13-112
 10
12.700166
 20
87.75
 30
0.0
 50
270.0
  0
DIMENSION
  5
1105
330
154A
100
AcDbEntity
  8
BEMASSUNG
100
AcDbDimension
280
     0
  2
*D9
 10
6.613705170249913
 20
79.68991348880684
 30
0.0
 11
27.78549608649779
 21
97.57209360305438
 31
0.0
 70
    35
 71
     5
 42
20.20000000000001
 73
     0
 74
     0
 75
     0
  3
QCADDimStyle
100
AcDbDiametricDimension
 15
18.78662682975009
 25
95.81008651119316
 35
0.0
 40
0.0
1001
ACAD
1000
DSTYLE
1002
{
1070
   279
1070
     2
1070
   171
1070
     0
1070
    41
1040
0.125
1070
   176
1070
     0
1070
   177
1070
     0
1070
   178
1070
     0
1070
   271
1070
     3
1070
    43
1040
0.25
1070
    44
1040
0.125
1070
   147
1040
0.0625
1070
   272
1070
     3
1070
    48
1040
-0.005
1070
   172
1070
     1
1070
    47
1040
0.005
1070
   140
1040
3.0
1002
}
  0
DIMENSION
  5
1106
330
154A
100
AcDbEntity
  8
BEMASSUNG
100
AcDbDimension
280
     0
  2
*D10
 10
14.80016599999998
 20
98.84999999999998
 30
0.0
 11
12.70016599999998
 21
100.56875
 31
0.0
 70
    32
 71
     5
 42
4.200000000000005
 73
     0
 74
     0
 75
     0
  3
QCADDimStyle
100
AcDbAlignedDimension
 13
10.60016599999997
 23
97.24999999999999
 33
0.0
 14
14.80016599999998
 24
97.25
 34
0.0
100
AcDbRotatedDimension
1001
ACAD
1000
DSTYLE
1002
{
1070
   279
1070
     2
1070
   171
1070
     0
1070
    41
1040
0.125
1070
   176
1070
     0
1070
   177
1070
     0
1070
   178
1070
     0
1070
   271
1070
     3
1070
    43
1040
0.25
1070
    44
1040
0.125
1070
   147
1040
0.0625
1070
   272
1070
     3
1070
    48
1040
-0.005
1070
   172
1070
     1
1070
    47
1040
0.005
1070
   140
1040
3.0
1002
}
  0
DIMENSION
  5
1107
330
154A
100
AcDbEntity
  8
BEMASSUNG
100
AcDbDimension
280
     0
  2
*D11
 10
27.0
 20
78.25000037697288
 30
0.0
 11
25.4375
 21
87.75000018848644
 31
0.0
 70
    32
 71
     5
 42
18.99999962302712
 73
     0
 74
     0
 75
     0
  3
QCADDimStyle
100
AcDbAlignedDimension
 13
16.12945163989645
 23
97.25
 33
0.0
 14
16.12945268420775
 24
78.25000037697288
 34
0.0
 50
90.0
100
AcDbRotatedDimension
1001
ACAD
1000
DSTYLE
1002
{
1070
   279
1070
     2
1070
   171
1070
     0
1070
    41
1040
0.125
1070
   176
1070
     0
1070
   177
1070
     0
1070
   178
1070
     0
1070
   271
1070
     3
1070
    43
1040
0.25
1070
    44
1040
0.125
1070
   147
1040
0.0625
1070
   272
1070
     3
1070
    48
1040
-0.005
1070
   172
1070
     1
1070
    47
1040
0.005
1070
   140
1040
3.0
1002
}
  0
DIMENSION
  5
1108
330
154A
100
AcDbEntity
  8
BEMASSUNG
100
AcDbDimension
280
     0
  2
*D12
 10
0.0000000000000001
 20
88.84999999999998
 30
0.0
 11
-1.71875
 21
87.75
 31
0.0
 70
    32
 71
     5
 42
2.19999999999996
 73
     0
 74
     0
 75
     0
  3
QCADDimStyle
100
AcDbAlignedDimension
 13
1.700165999999983
 23
86.65000000000002
 33
0.0
 14
1.700165999999987
 24
88.84999999999998
 34
0.0
 50
90.0
100
AcDbRotatedDimension
1001
ACAD
1000
DSTYLE
1002
{
1070
   279
1070
     2
1070
   171
1070
     0
1070
    41
1040
0.125
1070
   176
1070
     0
1070
   177
1070
     0
1070
   178
1070
     0
1070
   271
1070
     3
1070
    43
1040
0.25
1070
    44
1040
0.125
1070
   147
1040
0.0625
1070
   272
1070
     3
1070
    48
1040
-0.005
1070
   172
1070
     1
1070
    47
1040
0.005
1070
   140
1040
3.0
1002
}
  0
DIMENSION
  5
1109
330
154A
100
AcDbEntity
  8
BEMASSUNG
100
AcDbDimension
280
     0
  2
*D13
 10
1.700165999999983
 20
73.84999999999998
 30
0.0
 11
7.200165999999983
 21
69.13124999999998
 31
0.0
 70
    32
 71
     5
 42
11.0
 73
     0
 74
     0
 75
     0
  3
QCADDimStyle
100
AcDbAlignedDimension
 13
12.70016599999998
 23
87.75
 33
0.0
 14
1.700165999999983
 24
86.65000000000002
 34
0.0
100
AcDbRotatedDimension
1001
ACAD
1000
DSTYLE
1002
{
1070
   279
1070
     2
1070
   171
1070
     0
1070
    41
1040
0.125
1070
   176
1070
     0
1070
   177
1070
     0
1070
   178
1070
     0
1070
   271
1070
     3
1070
    43
1040
0.25
1070
    44
1040
0.125
1070
   147
1040
0.0625
1070
   272
1070
     3
1070
    48
1040
-0.005
1070
   172
1070
     1
1070
    47
1040
0.005
1070
   140
1040
3.0
1002
}
  0
DIMENSION
  5
110A
330
154A
100
AcDbEntity
  8
BEMASSUNG
100
AcDbDimension
280
     0
  2
*D14
 10
-7.449862999999999
 20
69.84999999999998
 30
0.0
 11
2.625151499999992
 21
71.41249999999998
 31
0.0
 70
    32
 71
     5
 42
20.15002899999998
 73
     0
 74
     0
 75
     0
  3
QCADDimStyle
100
AcDbAlignedDimension
 13
12.70016599999998
 23
87.75
 33
0.0
 14
-7.449862999999999
 24
87.75
 34
0.0
100
AcDbRotatedDimension
1001
ACAD
1000
DSTYLE
1002
{
1070
   279
1070
     2
1070
   171
1070
     0
1070
    41
1040
0.125
1070
   176
1070
     0
1070
   177
1070
     0
1070
   178
1070
     0
1070
   271
1070
     3
1070
    43
1040
0.25
1070
    44
1040
0.125
1070
   147
1040
0.0625
1070
   272
1070
     3
1070
    48
1040
-0.005
1070
   172
1070
     1
1070
    47
1040
0.005
1070
   140
1040
3.0
1002
}
  0
DIMENSION
  5
110F
330
154A
100
AcDbEntity
  8
BEMASSUNG
100
AcDbDimension
280
     0
  2
*D15
 10
22.99999999999996
 20
-2.999968999999993
 30
0.0
 11
21.43749999999997
 21
42.3750155
 31
0.0
 70
    32
 71
     5
 42
90.74996899999998
 73
     0
 74
     0
 75
     0
  3
QCADDimStyle
100
AcDbAlignedDimension
 13
12.700166
 23
87.74999999999999
 33
0.0
 14
12.700166
 24
-2.999968999999993
 34
0.0
 50
90.0
100
AcDbRotatedDimension
1001
ACAD
1000
DSTYLE
1002
{
1070
   279
1070
     2
1070
   171
1070
     0
1070
    41
1040
0.125
1070
   176
1070
     0
1070
   177
1070
     0
1070
   178
1070
     0
1070
   271
1070
     3
1070
    43
1040
0.25
1070
    44
1040
0.125
1070
   147
1040
0.0625
1070
   272
1070
     3
1070
    48
1040
-0.005
1070
   172
1070
     1
1070
    47
1040
0.005
1070
   140
1040
3.0
1002
}
  0
DIMENSION
  5
123B
330
154A
100
AcDbEntity
  8
BEMASSUNG
100
AcDbDimension
280
     0
  2
*D16
 10
15.99999999999999
 20
-2.999968999999993
 30
0.0
 11
14.43749999999999
 21
16.2800155
 31
0.0
 70
    32
 71
     5
 42
38.55996899999999
 73
     0
 74
     0
 75
     0
  3
QCADDimStyle
100
AcDbAlignedDimension
 13
12.700166
 23
35.56
 33
0.0
 14
17.943833
 24
-2.999968999999993
 34
0.0
 50
90.0
100
AcDbRotatedDimension
1001
ACAD
1000
DSTYLE
1002
{
1070
   279
1070
     2
1070
   171
1070
     0
1070
    41
1040
0.125
1070
   176
1070
     0
1070
   177
1070
     0
1070
   178
1070
     0
1070
   271
1070
     3
1070
    43
1040
0.25
1070
    44
1040
0.125
1070
   147
1040
0.0625
1070
   272
1070
     3
1070
    48
1040
-0.005
1070
   172
1070
     1
1070
    47
1040
0.005
1070
   140
1040
3.0
1002
}
  0
ENDSEC
  0
SECTION
  2
OBJECTS
  0
DICTIONARY
  5
1538
330
0
100
AcDbDictionary
281
     1
  3
ACAD_DETAILVIEWSTYLE
350
16E2
  3
ACAD_GROUP
350
1539
  3
ACAD_LAYOUT
350
1545
  3
ACAD_MATERIAL
350
156E
  3
ACAD_MLEADERSTYLE
350
1596
  3
ACAD_MLINESTYLE
350
1542
  3
ACAD_PLOTSETTINGS
350
1544
  3
ACAD_PLOTSTYLENAME
350
153A
  3
ACAD_SCALELIST
350
1572
  3
ACAD_SECTIONVIEWSTYLE
350
16E3
  3
ACAD_TABLESTYLE
350
1594
  3
ACAD_VISUALSTYLE
350
1555
  3
ACDB_RECOMPOSE_DATA
350
16DF
  3
AcDbVariableDictionary
350
16DB
  3
QCAD_OBJECTS
350
159A
  0
SUN
  5
1598
330
1554
100
AcDbSun
 90
        1
290
     0
 63
     7
421
 16777215
 40
1.0
291
     1
 91
  2455826
 92
 54000000
292
     0
 70
     2
 71
   256
280
     1
  0
DICTIONARY
  5
16E2
102
{ACAD_REACTORS
330
1538
102
}
330
1538
100
AcDbDictionary
281
     1
  0
DICTIONARY
  5
1539
102
{ACAD_REACTORS
330
1538
102
}
330
1538
100
AcDbDictionary
281
     1
  0
DICTIONARY
  5
1545
102
{ACAD_REACTORS
330
1538
102
}
330
1538
100
AcDbDictionary
281
     1
  3
Layout1
350
1549
  3
Layout2
350
1551
  3
Model
350
154D
  0
DICTIONARY
  5
156E
102
{ACAD_REACTORS
330
1538
102
}
330
1538
100
AcDbDictionary
281
     1
  3
ByBlock
350
1570
  3
ByLayer
350
156F
  3
Global
350
1571
  0
DICTIONARY
  5
1596
102
{ACAD_REACTORS
330
1538
102
}
330
1538
100
AcDbDictionary
281
     1
  3
Standard
350
1597
  0
DICTIONARY
  5
1542
102
{ACAD_REACTORS
330
1538
102
}
330
1538
100
AcDbDictionary
281
     1
  3
Standard
350
1543
  0
DICTIONARY
  5
1544
102
{ACAD_REACTORS
330
1538
102
}
330
1538
100
AcDbDictionary
281
     1
  0
ACDBDICTIONARYWDFLT
  5
153A
102
{ACAD_REACTORS
330
1538
102
}
330
1538
100
AcDbDictionary
281
     1
  3
Normal
350
153B
100
AcDbDictionaryWithDefault
340
153B
  0
DICTIONARY
  5
1572
102
{ACAD_REACTORS
330
1538
102
}
330
1538
100
AcDbDictionary
281
     1
  3
A0
350
1573
  3
A1
350
1574
  3
A2
350
1575
  3
A3
350
1576
  3
A4
350
1577
  3
A5
350
1578
  3
A6
350
1579
  3
A7
350
157A
  3
A8
350
157B
  3
A9
350
157C
  3
B0
350
157D
  3
B1
350
157E
  3
B2
350
157F
  3
B3
350
1580
  3
B4
350
1581
  3
B5
350
1582
  3
B6
350
1583
  3
B7
350
1584
  3
B8
350
1585
  3
B9
350
1586
  3
C0
350
1587
  3
C1
350
1588
  3
C2
350
1589
  3
C3
350
158A
  3
C4
350
158B
  3
C5
350
158C
  3
C6
350
158D
  3
C7
350
158E
  3
C8
350
158F
  3
C9
350
1590
  3
D0
350
1591
  3
D1
350
1592
  3
D2
350
1593
  0
DICTIONARY
  5
16E3
102
{ACAD_REACTORS
330
1538
102
}
330
1538
100
AcDbDictionary
281
     1
  0
DICTIONARY
  5
1594
102
{ACAD_REACTORS
330
1538
102
}
330
1538
100
AcDbDictionary
281
     1
  3
Standard
350
1595
  0
DICTIONARY
  5
1555
102
{ACAD_REACTORS
330
1538
102
}
330
1538
100
AcDbDictionary
281
     1
  3
2dWireframe
350
155A
  3
Basic
350
155D
  3
Brighten
350
1561
  3
ColorChange
350
1565
  3
Conceptual
350
155F
  3
Dim
350
1560
  3
EdgeColorOff
350
1568
  3
Facepattern
350
1564
  3
Flat
350
1556
  3
FlatWithEdges
350
1557
  3
Gouraud
350
1558
  3
GouraudWithEdges
350
1559
  3
Hidden
350
155C
  3
JitterOff
350
1566
  3
Linepattern
350
1563
  3
OverhangOff
350
1567
  3
Realistic
350
155E
  3
Shaded
350
156D
  3
Shaded with edges
350
156C
  3
Shades of Gray
350
1569
  3
Sketchy
350
156A
  3
Thicken
350
1562
  3
Wireframe
350
155B
  3
X-Ray
350
156B
  0
XRECORD
  5
16DF
102
{ACAD_REACTORS
330
1538
102
}
330
1538
100
AcDbXrecord
280
     1
 90
        1
330
1595
  0
DICTIONARY
  5
16DB
102
{ACAD_REACTORS
330
1538
102
}
330
1538
100
AcDbDictionary
281
     1
  3
CANNOSCALE
350
16DC
  3
CMLEADERSTYLE
350
16E1
  3
CTABLESTYLE
350
16E0
  0
DICTIONARY
  5
159A
102
{ACAD_REACTORS
330
1538
102
}
330
1538
100
AcDbDictionary
281
     1
  3
ColorSettings/BackgroundColor
350
159C
  3
ColorSettings/ColorMode
350
159D
  3
Grid/DisplayGrid00
350
159E
  3
Grid/DisplayGrid01
350
159F
  3
Grid/DisplayGrid02
350
15A0
  3
Grid/DisplayGrid03
350
15A1
  3
Grid/GridSpacingX00
350
15A2
  3
Grid/GridSpacingX01
350
15A3
  3
Grid/GridSpacingX02
350
15A4
  3
Grid/GridSpacingX03
350
15A5
  3
Grid/GridSpacingY00
350
15A6
  3
Grid/GridSpacingY01
350
15A7
  3
Grid/GridSpacingY02
350
15A8
  3
Grid/GridSpacingY03
350
15A9
  3
Grid/IsometricGrid00
350
15AA
  3
Grid/IsometricGrid01
350
15AB
  3
Grid/IsometricGrid02
350
15AC
  3
Grid/IsometricGrid03
350
15AD
  3
Grid/IsometricProjection00
350
15AE
  3
Grid/IsometricProjection01
350
15AF
  3
Grid/IsometricProjection02
350
15B0
  3
Grid/IsometricProjection03
350
15B1
  3
Grid/MetaGridSpacingX00
350
15B2
  3
Grid/MetaGridSpacingX01
350
15B3
  3
Grid/MetaGridSpacingX02
350
15B4
  3
Grid/MetaGridSpacingX03
350
15B5
  3
Grid/MetaGridSpacingY00
350
15B6
  3
Grid/MetaGridSpacingY01
350
15B7
  3
Grid/MetaGridSpacingY02
350
15B8
  3
Grid/MetaGridSpacingY03
350
15B9
  3
MultiPageSettings/Columns
350
15BA
  3
MultiPageSettings/GlueMarginsBottom
350
15BB
  3
MultiPageSettings/GlueMarginsLeft
350
15BC
  3
MultiPageSettings/GlueMarginsRight
350
15BD
  3
MultiPageSettings/GlueMarginsTop
350
15BE
  3
MultiPageSettings/PrintCropMarks
350
15BF
  3
MultiPageSettings/Rows
350
15C0
  3
PageSettings/OffsetX
350
15C1
  3
PageSettings/OffsetY
350
15C2
  3
PageSettings/PageOrientation
350
15C3
  3
PageSettings/PaperHeight
350
15C4
  3
PageSettings/PaperWidth
350
15C5
  3
PageSettings/Scale
350
15C6
  3
PageSettings/ShowPaperBorders
350
15C7
  3
QCADVersion
350
15C8
  3
UnitSettings/PaperUnit
350
15C9
  0
LAYOUT
  5
1549
102
{ACAD_REACTORS
330
1545
102
}
330
1545
100
AcDbPlotSettings
  1

  2
none_device
  4

  6

 40
0.0
 41
0.0
 42
0.0
 43
0.0
 44
0.0
 45
0.0
 46
0.0
 47
0.0
 48
0.0
 49
0.0
140
0.0
141
0.0
142
1.0
143
1.0
 70
   688
 72
     0
 73
     0
 74
     5
  7

 75
    16
 76
     0
 77
     2
 78
   300
147
1.0
148
0.0
149
0.0
100
AcDbLayout
  1
Layout1
 70
     0
 71
     1
 10
0.0
 20
0.0
 11
210.0
 21
297.0
 12
0.0
 22
0.0
 32
0.0
 14
0.0
 24
0.0
 34
0.0
 15
210.0
 25
297.0
 35
0.0
146
0.0
 13
0.0
 23
0.0
 33
0.0
 16
1.0
 26
0.0
 36
0.0
 17
0.0
 27
1.0
 37
0.0
 76
     0
330
1546
  0
LAYOUT
  5
1551
102
{ACAD_REACTORS
330
1545
102
}
330
1545
100
AcDbPlotSettings
  1

  2
none_device
  4

  6

 40
0.0
 41
0.0
 42
0.0
 43
0.0
 44
0.0
 45
0.0
 46
0.0
 47
0.0
 48
0.0
 49
0.0
140
0.0
141
0.0
142
1.0
143
1.0
 70
   688
 72
     0
 73
     0
 74
     5
  7

 75
    16
 76
     0
 77
     2
 78
   300
147
1.0
148
0.0
149
0.0
100
AcDbLayout
  1
Layout2
 70
     1
 71
     2
 10
0.0
 20
0.0
 11
0.0
 21
0.0
 12
0.0
 22
0.0
 32
0.0
 14
0.0
 24
0.0
 34
0.0
 15
0.0
 25
0.0
 35
0.0
146
0.0
 13
0.0
 23
0.0
 33
0.0
 16
1.0
 26
0.0
 36
0.0
 17
0.0
 27
1.0
 37
0.0
 76
     0
330
154E
  0
LAYOUT
  5
154D
102
{ACAD_REACTORS
330
1545
102
}
330
1545
100
AcDbPlotSettings
  1

  2
none_device
  4
Letter_(8.50_x_11.00_Inches)
  6

 40
6.35
 41
6.35
 42
6.35000508
 43
6.35000508
 44
215.9
 45
279.4
 46
0.0
 47
0.0
 48
0.0
 49
0.0
140
0.0
141
0.0
142
1.0
143
1.0
 70
  1712
 72
     0
 73
     0
 74
     0
  7

 75
     0
 76
     0
 77
     2
 78
   300
147
1.0
148
0.0
149
0.0
100
AcDbLayout
  1
Model
 70
     1
 71
     0
 10
0.0
 20
0.0
 11
0.0
 21
0.0
 12
0.0
 22
0.0
 32
0.0
 14
0.0
 24
0.0
 34
1.000000000000000E+20
 15
210.0
 25
297.0
 35
-1.000000000000000E+20
146
0.0
 13
0.0
 23
0.0
 33
0.0
 16
1.0
 26
0.0
 36
0.0
 17
0.0
 27
1.0
 37
0.0
 76
     0
330
154A
331
1554
  0
MATERIAL
  5
1570
102
{ACAD_REACTORS
330
156E
102
}
330
156E
100
AcDbMaterial
  1
ByBlock
 72
     1
 94
      127
  0
MATERIAL
  5
156F
102
{ACAD_REACTORS
330
156E
102
}
330
156E
100
AcDbMaterial
  1
ByLayer
 72
     1
 94
      127
  0
MATERIAL
  5
1571
102
{ACAD_REACTORS
330
156E
102
}
330
156E
100
AcDbMaterial
  1
Global
 72
     1
 94
      127
  0
MLEADERSTYLE
  5
1597
102
{ACAD_REACTORS
330
1596
102
}
330
1596
100
AcDbMLeaderStyle
179
     2
170
     2
171
     1
172
     0
 90
        2
 40
0.0
 41
0.0
173
     1
 91
-1056964608
340
153F
 92
       -2
290
     1
 42
0.09
291
     1
 43
0.36
  3
Standard
341
0
 44
0.18
300

342
153D
174
     1
178
     6
175
     1
176
     0
 93
-1056964608
 45
0.18
292
     0
297
     0
 46
0.18
343
0
 94
-1056964608
 47
1.0
 49
1.0
140
1.0
293
     1
141
0.0
294
     1
177
     0
142
1.0
295
     0
296
     0
143
0.125
271
     0
272
     9
273
     9
298
     0
  0
MLINESTYLE
  5
1543
102
{ACAD_REACTORS
330
1542
102
}
330
1542
100
AcDbMlineStyle
  2
Standard
 70
     0
  3

 62
   256
 51
90.0
 52
90.0
 71
     2
 49
0.5
 62
   256
  6
BYLAYER
 49
-0.5
 62
   256
  6
BYLAYER
  0
ACDBPLACEHOLDER
  5
153B
102
{ACAD_REACTORS
330
153A
102
}
330
153A
  0
SCALE
  5
1573
102
{ACAD_REACTORS
330
1572
102
}
330
1572
100
AcDbScale
 70
     0
300
1:1
140
1.0
141
1.0
290
     1
  0
SCALE
  5
1574
102
{ACAD_REACTORS
330
1572
102
}
330
1572
100
AcDbScale
 70
     0
300
1:2
140
1.0
141
2.0
290
     0
  0
SCALE
  5
1575
102
{ACAD_REACTORS
330
1572
102
}
330
1572
100
AcDbScale
 70
     0
300
1:4
140
1.0
141
4.0
290
     0
  0
SCALE
  5
1576
102
{ACAD_REACTORS
330
1572
102
}
330
1572
100
AcDbScale
 70
     0
300
1:5
140
1.0
141
5.0
290
     0
  0
SCALE
  5
1577
102
{ACAD_REACTORS
330
1572
102
}
330
1572
100
AcDbScale
 70
     0
300
1:8
140
1.0
141
8.0
290
     0
  0
SCALE
  5
1578
102
{ACAD_REACTORS
330
1572
102
}
330
1572
100
AcDbScale
 70
     0
300
1:10
140
1.0
141
10.0
290
     0
  0
SCALE
  5
1579
102
{ACAD_REACTORS
330
1572
102
}
330
1572
100
AcDbScale
 70
     0
300
1:16
140
1.0
141
16.0
290
     0
  0
SCALE
  5
157A
102
{ACAD_REACTORS
330
1572
102
}
330
1572
100
AcDbScale
 70
     0
300
1:20
140
1.0
141
20.0
290
     0
  0
SCALE
  5
157B
102
{ACAD_REACTORS
330
1572
102
}
330
1572
100
AcDbScale
 70
     0
300
1:30
140
1.0
141
30.0
290
     0
  0
SCALE
  5
157C
102
{ACAD_REACTORS
330
1572
102
}
330
1572
100
AcDbScale
 70
     0
300
1:40
140
1.0
141
40.0
290
     0
  0
SCALE
  5
157D
102
{ACAD_REACTORS
330
1572
102
}
330
1572
100
AcDbScale
 70
     0
300
1:50
140
1.0
141
50.0
290
     0
  0
SCALE
  5
157E
102
{ACAD_REACTORS
330
1572
102
}
330
1572
100
AcDbScale
 70
     0
300
1:100
140
1.0
141
100.0
290
     0
  0
SCALE
  5
157F
102
{ACAD_REACTORS
330
1572
102
}
330
1572
100
AcDbScale
 70
     0
300
2:1
140
2.0
141
1.0
290
     0
  0
SCALE
  5
1580
102
{ACAD_REACTORS
330
1572
102
}
330
1572
100
AcDbScale
 70
     0
300
4:1
140
4.0
141
1.0
290
     0
  0
SCALE
  5
1581
102
{ACAD_REACTORS
330
1572
102
}
330
1572
100
AcDbScale
 70
     0
300
8:1
140
8.0
141
1.0
290
     0
  0
SCALE
  5
1582
102
{ACAD_REACTORS
330
1572
102
}
330
1572
100
AcDbScale
 70
     0
300
10:1
140
10.0
141
1.0
290
     0
  0
SCALE
  5
1583
102
{ACAD_REACTORS
330
1572
102
}
330
1572
100
AcDbScale
 70
     0
300
100:1
140
100.0
141
1.0
290
     0
  0
SCALE
  5
1584
102
{ACAD_REACTORS
330
1572
102
}
330
1572
100
AcDbScale
 70
     0
300
1/128" = 1'-0"
140
0.0078125
141
12.0
290
     0
  0
SCALE
  5
1585
102
{ACAD_REACTORS
330
1572
102
}
330
1572
100
AcDbScale
 70
     0
300
1/64" = 1'-0"
140
0.015625
141
12.0
290
     0
  0
SCALE
  5
1586
102
{ACAD_REACTORS
330
1572
102
}
330
1572
100
AcDbScale
 70
     0
300
1/32" = 1'-0"
140
0.03125
141
12.0
290
     0
  0
SCALE
  5
1587
102
{ACAD_REACTORS
330
1572
102
}
330
1572
100
AcDbScale
 70
     0
300
1/16" = 1'-0"
140
0.0625
141
12.0
290
     0
  0
SCALE
  5
1588
102
{ACAD_REACTORS
330
1572
102
}
330
1572
100
AcDbScale
 70
     0
300
3/32" = 1'-0"
140
0.09375
141
12.0
290
     0
  0
SCALE
  5
1589
102
{ACAD_REACTORS
330
1572
102
}
330
1572
100
AcDbScale
 70
     0
300
1/8" = 1'-0"
140
0.125
141
12.0
290
     0
  0
SCALE
  5
158A
102
{ACAD_REACTORS
330
1572
102
}
330
1572
100
AcDbScale
 70
     0
300
3/16" = 1'-0"
140
0.1875
141
12.0
290
     0
  0
SCALE
  5
158B
102
{ACAD_REACTORS
330
1572
102
}
330
1572
100
AcDbScale
 70
     0
300
1/4" = 1'-0"
140
0.25
141
12.0
290
     0
  0
SCALE
  5
158C
102
{ACAD_REACTORS
330
1572
102
}
330
1572
100
AcDbScale
 70
     0
300
3/8" = 1'-0"
140
0.375
141
12.0
290
     0
  0
SCALE
  5
158D
102
{ACAD_REACTORS
330
1572
102
}
330
1572
100
AcDbScale
 70
     0
300
1/2" = 1'-0"
140
0.5
141
12.0
290
     0
  0
SCALE
  5
158E
102
{ACAD_REACTORS
330
1572
102
}
330
1572
100
AcDbScale
 70
     0
300
3/4" = 1'-0"
140
0.75
141
12.0
290
     0
  0
SCALE
  5
158F
102
{ACAD_REACTORS
330
1572
102
}
330
1572
100
AcDbScale
 70
     0
300
1" = 1'-0"
140
1.0
141
12.0
290
     0
  0
SCALE
  5
1590
102
{ACAD_REACTORS
330
1572
102
}
330
1572
100
AcDbScale
 70
     0
300
1-1/2" = 1'-0"
140
1.5
141
12.0
290
     0
  0
SCALE
  5
1591
102
{ACAD_REACTORS
330
1572
102
}
330
1572
100
AcDbScale
 70
     0
300
3" = 1'-0"
140
3.0
141
12.0
290
     0
  0
SCALE
  5
1592
102
{ACAD_REACTORS
330
1572
102
}
330
1572
100
AcDbScale
 70
     0
300
6" = 1'-0"
140
6.0
141
12.0
290
     0
  0
SCALE
  5
1593
102
{ACAD_REACTORS
330
1572
102
}
330
1572
100
AcDbScale
 70
     0
300
1'-0" = 1'-0"
140
12.0
141
12.0
290
     0
  0
TABLESTYLE
  5
1595
102
{ACAD_REACTORS
330
1594
102
}
102
{ACAD_XDICTIONARY
360
16DD
102
}
330
1594
100
AcDbTableStyle
  3
Standard
 70
     0
 71
     0
 40
0.06
 41
0.06
280
     0
281
     0
  7
Standard
140
0.18
170
     2
 62
     0
 63
   257
283
     0
 90
        4
 91
        0
  1

274
    -2
284
     1
 64
     0
275
    -2
285
     1
 65
     0
276
    -2
286
     1
 66
     0
277
    -2
287
     1
 67
     0
278
    -2
288
     1
 68
     0
279
    -2
289
     1
 69
     0
  7
Standard
140
0.25
170
     5
 62
     0
 63
   257
283
     0
 90
        4
 91
        0
  1

274
    -2
284
     1
 64
     0
275
    -2
285
     1
 65
     0
276
    -2
286
     1
 66
     0
277
    -2
287
     1
 67
     0
278
    -2
288
     1
 68
     0
279
    -2
289
     1
 69
     0
  7
Standard
140
0.18
170
     5
 62
     0
 63
   257
283
     0
 90
        4
 91
        0
  1

274
    -2
284
     1
 64
     0
275
    -2
285
     1
 65
     0
276
    -2
286
     1
 66
     0
277
    -2
287
     1
 67
     0
278
    -2
288
     1
 68
     0
279
    -2
289
     1
 69
     0
  0
VISUALSTYLE
  5
155A
102
{ACAD_REACTORS
330
1555
102
}
330
1555
100
AcDbVisualStyle
  2
2dWireframe
 70
     4
177
     3
291
     0
 70
    58
 90
        0
176
     1
 90
        2
176
     1
 90
        0
176
     1
 90
        0
176
     1
 40
0.6
176
     1
 40
30.0
176
     1
 62
     7
420
 16777215
176
     1
 90
        1
176
     1
 90
        4
176
     1
 62
     7
176
     1
 62
   257
176
     1
 90
        1
176
     1
 90
        1
176
     1
 40
1.0
176
     1
 90
        0
176
     1
 62
   257
176
     1
 40
1.0
176
     1
 90
        1
176
     1
 90
        6
176
     1
 90
        2
176
     1
 62
     7
176
     1
 90
        5
176
     1
 90
        0
176
     1
 90
        0
176
     1
290
     0
176
     1
 90
        1
176
     1
 40
0.0
176
     1
 90
        0
176
     1
290
     1
176
     1
290
     1
176
     1
290
     0
176
     1
290
     0
176
     1
290
     0
176
     1
290
     0
176
     1
290
     0
176
     1
290
     0
176
     1
290
     0
176
     1
 90
       50
176
     1
 40
0.0
176
     1
 40
1.0
176
     1
 90
        0
176
     1
 62
   178
420
        0
176
     1
 90
       50
176
     1
 90
        3
176
     1
 62
     5
420
      255
176
     1
290
     0
176
     1
 90
       50
176
     1
 90
       50
176
     1
 90
       50
176
     1
290
     0
176
     1
 90
       50
176
     1
 62
   256
176
     0
 40
1.0
176
     0
 90
        2
176
     1
  1
strokes_ogs.tif
176
     1
290
     0
176
     1
 40
1.0
176
     1
 40
1.0
176
     1
  0
VISUALSTYLE
  5
155D
102
{ACAD_REACTORS
330
1555
102
}
330
1555
100
AcDbVisualStyle
  2
Basic
 70
     7
177
     3
291
     1
 70
    58
 90
        1
176
     1
 90
        0
176
     1
 90
        1
176
     1
 90
        0
176
     1
 40
0.6
176
     1
 40
30.0
176
     1
 62
     7
420
 16777215
176
     1
 90
        0
176
     1
 90
        4
176
     1
 62
     7
176
     1
 62
   257
176
     1
 90
        1
176
     1
 90
        1
176
     1
 40
1.0
176
     1
 90
        8
176
     1
 62
     7
176
     1
 40
1.0
176
     1
 90
        1
176
     1
 90
        6
176
     1
 90
        2
176
     1
 62
     7
176
     1
 90
        5
176
     1
 90
        0
176
     1
 90
        0
176
     1
290
     0
176
     1
 90
        1
176
     1
 40
0.0
176
     1
 90
        0
176
     1
290
     0
176
     1
290
     1
176
     1
290
     1
176
     1
290
     0
176
     1
290
     0
176
     1
290
     0
176
     1
290
     0
176
     1
290
     0
176
     1
290
     0
176
     1
 90
       50
176
     1
 40
0.0
176
     1
 40
1.0
176
     1
 90
        0
176
     1
 62
   178
420
        0
176
     1
 90
       50
176
     1
 90
        3
176
     1
 62
     5
420
      255
176
     1
290
     0
176
     1
 90
       50
176
     1
 90
       50
176
     1
 90
       50
176
     1
290
     0
176
     1
 90
       50
176
     1
 62
   256
176
     0
 40
1.0
176
     0
 90
        2
176
     1
  1
strokes_ogs.tif
176
     1
290
     0
176
     1
 40
1.0
176
     1
 40
1.0
176
     1
  0
VISUALSTYLE
  5
1561
102
{ACAD_REACTORS
330
1555
102
}
330
1555
100
AcDbVisualStyle
  2
Brighten
 70
    12
177
     3
291
     1
 70
    58
 90
        2
176
     1
 90
        2
176
     1
 90
        0
176
     1
 90
        0
176
     1
 40
0.6
176
     1
 40
30.0
176
     1
 62
     7
420
 16777215
176
     1
 90
        1
176
     1
 90
        4
176
     1
 62
     7
176
     1
 62
   257
176
     1
 90
        1
176
     1
 90
        1
176
     1
 40
1.0
176
     1
 90
        8
176
     1
 62
     7
176
     1
 40
1.0
176
     1
 90
        1
176
     1
 90
        6
176
     1
 90
        2
176
     1
 62
     7
176
     1
 90
        5
176
     1
 90
        0
176
     1
 90
        0
176
     1
290
     0
176
     1
 90
        1
176
     1
 40
50.0
176
     1
 90
        0
176
     1
290
     0
176
     1
290
     1
176
     1
290
     1
176
     1
290
     0
176
     1
290
     0
176
     1
290
     0
176
     1
290
     0
176
     1
290
     0
176
     1
290
     0
176
     1
 90
       50
176
     1
 40
0.0
176
     1
 40
1.0
176
     1
 90
        0
176
     1
 62
   178
420
        0
176
     1
 90
       50
176
     1
 90
        3
176
     1
 62
     5
420
      255
176
     1
290
     0
176
     1
 90
       50
176
     1
 90
       50
176
     1
 90
       50
176
     1
290
     0
176
     1
 90
       50
176
     1
 62
   256
176
     0
 40
1.0
176
     0
 90
        2
176
     1
  1
strokes_ogs.tif
176
     1
290
     0
176
     1
 40
1.0
176
     1
 40
1.0
176
     1
  0
VISUALSTYLE
  5
1565
102
{ACAD_REACTORS
330
1555
102
}
330
1555
100
AcDbVisualStyle
  2
ColorChange
 70
    16
177
     3
291
     1
 70
    58
 90
        2
176
     1
 90
        2
176
     1
 90
        3
176
     1
 90
        0
176
     1
 40
0.6
176
     1
 40
30.0
176
     1
 62
     8
420
  8421504
176
     1
 90
        1
176
     1
 90
        4
176
     1
 62
     7
176
     1
 62
   257
176
     1
 90
        1
176
     1
 90
        1
176
     1
 40
1.0
176
     1
 90
        8
176
     1
 62
     8
420
  8421504
176
     1
 40
1.0
176
     1
 90
        1
176
     1
 90
        6
176
     1
 90
        2
176
     1
 62
     7
176
     1
 90
        5
176
     1
 90
        0
176
     1
 90
        0
176
     1
290
     0
176
     1
 90
        1
176
     1
 40
0.0
176
     1
 90
        0
176
     1
290
     0
176
     1
290
     1
176
     1
290
     1
176
     1
290
     0
176
     1
290
     0
176
     1
290
     0
176
     1
290
     0
176
     1
290
     0
176
     1
290
     0
176
     1
 90
       50
176
     1
 40
0.0
176
     1
 40
1.0
176
     1
 90
        0
176
     1
 62
   178
420
        0
176
     1
 90
       50
176
     1
 90
        3
176
     1
 62
     5
420
      255
176
     1
290
     0
176
     1
 90
       50
176
     1
 90
       50
176
     1
 90
       50
176
     1
290
     0
176
     1
 90
       50
176
     1
 62
   256
176
     0
 40
1.0
176
     0
 90
        2
176
     1
  1
strokes_ogs.tif
176
     1
290
     0
176
     1
 40
1.0
176
     1
 40
1.0
176
     1
  0
VISUALSTYLE
  5
155F
102
{ACAD_REACTORS
330
1555
102
}
330
1555
100
AcDbVisualStyle
  2
Conceptual
 70
     9
177
     3
291
     0
 70
    58
 90
        3
176
     1
 90
        2
176
     1
 90
        0
176
     1
 90
        0
176
     1
 40
0.6
176
     1
 40
30.0
176
     1
 62
     7
420
 16777215
176
     1
 90
        2
176
     1
 90
        2
176
     1
 62
     7
176
     1
 62
   257
176
     1
 90
        1
176
     1
 90
        1
176
     1
 40
179.0
176
     1
 90
        8
176
     1
 62
     7
176
     1
 40
1.0
176
     1
 90
        1
176
     1
 90
        6
176
     1
 90
        2
176
     1
 62
     7
176
     1
 90
        3
176
     1
 90
        0
176
     1
 90
        0
176
     1
290
     0
176
     1
 90
        1
176
     1
 40
0.0
176
     1
 90
        0
176
     1
290
     0
176
     1
290
     1
176
     1
290
     1
176
     1
290
     0
176
     1
290
     0
176
     1
290
     0
176
     1
290
     0
176
     1
290
     0
176
     1
290
     0
176
     1
 90
       50
176
     1
 40
0.0
176
     1
 40
1.0
176
     1
 90
        0
176
     1
 62
   178
420
        0
176
     1
 90
       50
176
     1
 90
        3
176
     1
 62
     5
420
      255
176
     1
290
     0
176
     1
 90
       50
176
     1
 90
       50
176
     1
 90
       50
176
     1
290
     0
176
     1
 90
       50
176
     1
 62
   256
176
     0
 40
1.0
176
     0
 90
        2
176
     1
  1
strokes_ogs.tif
176
     1
290
     0
176
     1
 40
1.0
176
     1
 40
1.0
176
     1
  0
VISUALSTYLE
  5
1560
102
{ACAD_REACTORS
330
1555
102
}
330
1555
100
AcDbVisualStyle
  2
Dim
 70
    11
177
     3
291
     1
 70
    58
 90
        2
176
     1
 90
        2
176
     1
 90
        0
176
     1
 90
        0
176
     1
 40
0.6
176
     1
 40
30.0
176
     1
 62
     7
420
 16777215
176
     1
 90
        1
176
     1
 90
        4
176
     1
 62
     7
176
     1
 62
   257
176
     1
 90
        1
176
     1
 90
        1
176
     1
 40
1.0
176
     1
 90
        8
176
     1
 62
     7
176
     1
 40
1.0
176
     1
 90
        1
176
     1
 90
        6
176
     1
 90
        2
176
     1
 62
     7
176
     1
 90
        5
176
     1
 90
        0
176
     1
 90
        0
176
     1
290
     0
176
     1
 90
        1
176
     1
 40
-50.0
176
     1
 90
        0
176
     1
290
     0
176
     1
290
     1
176
     1
290
     1
176
     1
290
     0
176
     1
290
     0
176
     1
290
     0
176
     1
290
     0
176
     1
290
     0
176
     1
290
     0
176
     1
 90
       50
176
     1
 40
0.0
176
     1
 40
1.0
176
     1
 90
        0
176
     1
 62
   178
420
        0
176
     1
 90
       50
176
     1
 90
        3
176
     1
 62
     5
420
      255
176
     1
290
     0
176
     1
 90
       50
176
     1
 90
       50
176
     1
 90
       50
176
     1
290
     0
176
     1
 90
       50
176
     1
 62
   256
176
     0
 40
1.0
176
     0
 90
        2
176
     1
  1
strokes_ogs.tif
176
     1
290
     0
176
     1
 40
1.0
176
     1
 40
1.0
176
     1
  0
VISUALSTYLE
  5
1568
102
{ACAD_REACTORS
330
1555
102
}
330
1555
100
AcDbVisualStyle
  2
EdgeColorOff
 70
    22
177
     3
291
     1
 70
    58
 90
        2
176
     0
 90
        2
176
     0
 90
        0
176
     0
 90
        0
176
     0
 40
0.6
176
     0
 40
30.0
176
     0
 62
     7
420
 16777215
176
     0
 90
        1
176
     0
 90
        4
176
     0
 62
     7
176
     0
 62
   257
176
     0
 90
        1
176
     0
 90
        1
176
     0
 40
1.0
176
     0
 90
        8
176
     2
 62
     7
176
     0
 40
1.0
176
     0
 90
        1
176
     0
 90
        6
176
     0
 90
        2
176
     0
 62
     7
176
     0
 90
        5
176
     0
 90
        0
176
     0
 90
        0
176
     0
290
     0
176
     0
 90
        1
176
     0
 40
0.0
176
     0
 90
        0
176
     0
290
     0
176
     0
290
     1
176
     0
290
     1
176
     0
290
     0
176
     0
290
     0
176
     0
290
     0
176
     0
290
     0
176
     0
290
     0
176
     0
290
     0
176
     0
 90
       50
176
     0
 40
0.0
176
     0
 40
1.0
176
     0
 90
        0
176
     0
 62
   178
420
        0
176
     0
 90
       50
176
     0
 90
        3
176
     0
 62
     5
420
      255
176
     0
290
     0
176
     0
 90
       50
176
     0
 90
       50
176
     0
 90
       50
176
     0
290
     0
176
     0
 90
       50
176
     0
 62
   256
176
     0
 40
1.0
176
     0
 90
        2
176
     0
  1
strokes_ogs.tif
176
     0
290
     0
176
     0
 40
1.0
176
     0
 40
1.0
176
     0
  0
VISUALSTYLE
  5
1564
102
{ACAD_REACTORS
330
1555
102
}
330
1555
100
AcDbVisualStyle
  2
Facepattern
 70
    15
177
     3
291
     1
 70
    58
 90
        2
176
     1
 90
        2
176
     1
 90
        0
176
     1
 90
        0
176
     1
 40
0.6
176
     1
 40
30.0
176
     1
 62
     7
420
 16777215
176
     1
 90
        1
176
     1
 90
        4
176
     1
 62
     7
176
     1
 62
   257
176
     1
 90
        1
176
     1
 90
        1
176
     1
 40
1.0
176
     1
 90
        8
176
     1
 62
     7
176
     1
 40
1.0
176
     1
 90
        1
176
     1
 90
        6
176
     1
 90
        2
176
     1
 62
     7
176
     1
 90
        5
176
     1
 90
        0
176
     1
 90
        0
176
     1
290
     0
176
     1
 90
        1
176
     1
 40
0.0
176
     1
 90
        0
176
     1
290
     0
176
     1
290
     1
176
     1
290
     1
176
     1
290
     0
176
     1
290
     0
176
     1
290
     0
176
     1
290
     0
176
     1
290
     0
176
     1
290
     0
176
     1
 90
       50
176
     1
 40
0.0
176
     1
 40
1.0
176
     1
 90
        0
176
     1
 62
   178
420
        0
176
     1
 90
       50
176
     1
 90
        3
176
     1
 62
     5
420
      255
176
     1
290
     0
176
     1
 90
       50
176
     1
 90
       50
176
     1
 90
       50
176
     1
290
     0
176
     1
 90
       50
176
     1
 62
   256
176
     0
 40
1.0
176
     0
 90
        2
176
     1
  1
strokes_ogs.tif
176
     1
290
     0
176
     1
 40
1.0
176
     1
 40
1.0
176
     1
  0
VISUALSTYLE
  5
1556
102
{ACAD_REACTORS
330
1555
102
}
330
1555
100
AcDbVisualStyle
  2
Flat
 70
     0
177
     3
291
     1
 70
    58
 90
        2
176
     1
 90
        1
176
     1
 90
        1
176
     1
 90
        2
176
     1
 40
0.6
176
     1
 40
30.0
176
     1
 62
     7
420
 16777215
176
     1
 90
        0
176
     1
 90
        0
176
     1
 62
     7
176
     1
 62
   257
176
     1
 90
        1
176
     1
 90
        1
176
     1
 40
1.0
176
     1
 90
        8
176
     1
 62
     7
176
     1
 40
1.0
176
     1
 90
        1
176
     1
 90
        6
176
     1
 90
        2
176
     1
 62
     7
176
     1
 90
        5
176
     1
 90
        0
176
     1
 90
        0
176
     1
290
     0
176
     1
 90
       13
176
     1
 40
0.0
176
     1
 90
        0
176
     1
290
     0
176
     1
290
     1
176
     1
290
     1
176
     1
290
     0
176
     1
290
     0
176
     1
290
     0
176
     1
290
     0
176
     1
290
     0
176
     1
290
     0
176
     1
 90
       50
176
     1
 40
0.0
176
     1
 40
1.0
176
     1
 90
        0
176
     1
 62
   178
420
        0
176
     1
 90
       50
176
     1
 90
        3
176
     1
 62
     5
420
      255
176
     1
290
     0
176
     1
 90
       50
176
     1
 90
       50
176
     1
 90
       50
176
     1
290
     0
176
     1
 90
       50
176
     1
 62
   256
176
     0
 40
1.0
176
     0
 90
        2
176
     1
  1
strokes_ogs.tif
176
     1
290
     0
176
     1
 40
1.0
176
     1
 40
1.0
176
     1
  0
VISUALSTYLE
  5
1557
102
{ACAD_REACTORS
330
1555
102
}
330
1555
100
AcDbVisualStyle
  2
FlatWithEdges
 70
     1
177
     3
291
     1
 70
    58
 90
        2
176
     1
 90
        1
176
     1
 90
        1
176
     1
 90
        2
176
     1
 40
0.6
176
     1
 40
30.0
176
     1
 62
     7
420
 16777215
176
     1
 90
        1
176
     1
 90
        0
176
     1
 62
     7
176
     1
 62
   257
176
     1
 90
        1
176
     1
 90
        1
176
     1
 40
1.0
176
     1
 90
        0
176
     1
 62
   257
176
     1
 40
1.0
176
     1
 90
        1
176
     1
 90
        6
176
     1
 90
        2
176
     1
 62
     7
176
     1
 90
        5
176
     1
 90
        0
176
     1
 90
        0
176
     1
290
     0
176
     1
 90
       13
176
     1
 40
0.0
176
     1
 90
        0
176
     1
290
     0
176
     1
290
     1
176
     1
290
     1
176
     1
290
     0
176
     1
290
     0
176
     1
290
     0
176
     1
290
     0
176
     1
290
     0
176
     1
290
     0
176
     1
 90
       50
176
     1
 40
0.0
176
     1
 40
1.0
176
     1
 90
        0
176
     1
 62
   178
420
        0
176
     1
 90
       50
176
     1
 90
        3
176
     1
 62
     5
420
      255
176
     1
290
     0
176
     1
 90
       50
176
     1
 90
       50
176
     1
 90
       50
176
     1
290
     0
176
     1
 90
       50
176
     1
 62
   256
176
     0
 40
1.0
176
     0
 90
        2
176
     1
  1
strokes_ogs.tif
176
     1
290
     0
176
     1
 40
1.0
176
     1
 40
1.0
176
     1
  0
VISUALSTYLE
  5
1558
102
{ACAD_REACTORS
330
1555
102
}
330
1555
100
AcDbVisualStyle
  2
Gouraud
 70
     2
177
     3
291
     1
 70
    58
 90
        2
176
     1
 90
        2
176
     1
 90
        1
176
     1
 90
        2
176
     1
 40
0.6
176
     1
 40
30.0
176
     1
 62
     7
420
 16777215
176
     1
 90
        0
176
     1
 90
        0
176
     1
 62
     7
176
     1
 62
   257
176
     1
 90
        1
176
     1
 90
        1
176
     1
 40
1.0
176
     1
 90
        0
176
     1
 62
     7
176
     1
 40
1.0
176
     1
 90
        1
176
     1
 90
        6
176
     1
 90
        2
176
     1
 62
     7
176
     1
 90
        5
176
     1
 90
        0
176
     1
 90
        0
176
     1
290
     0
176
     1
 90
       13
176
     1
 40
0.0
176
     1
 90
        0
176
     1
290
     0
176
     1
290
     1
176
     1
290
     1
176
     1
290
     0
176
     1
290
     0
176
     1
290
     0
176
     1
290
     0
176
     1
290
     0
176
     1
290
     0
176
     1
 90
       50
176
     1
 40
0.0
176
     1
 40
1.0
176
     1
 90
        0
176
     1
 62
   178
420
        0
176
     1
 90
       50
176
     1
 90
        3
176
     1
 62
     5
420
      255
176
     1
290
     0
176
     1
 90
       50
176
     1
 90
       50
176
     1
 90
       50
176
     1
290
     0
176
     1
 90
       50
176
     1
 62
   256
176
     0
 40
1.0
176
     0
 90
        2
176
     1
  1
strokes_ogs.tif
176
     1
290
     0
176
     1
 40
1.0
176
     1
 40
1.0
176
     1
  0
VISUALSTYLE
  5
1559
102
{ACAD_REACTORS
330
1555
102
}
330
1555
100
AcDbVisualStyle
  2
GouraudWithEdges
 70
     3
177
     3
291
     1
 70
    58
 90
        2
176
     1
 90
        2
176
     1
 90
        1
176
     1
 90
        2
176
     1
 40
0.6
176
     1
 40
30.0
176
     1
 62
     7
420
 16777215
176
     1
 90
        1
176
     1
 90
        0
176
     1
 62
     7
176
     1
 62
   257
176
     1
 90
        1
176
     1
 90
        1
176
     1
 40
1.0
176
     1
 90
        0
176
     1
 62
   257
176
     1
 40
1.0
176
     1
 90
        1
176
     1
 90
        6
176
     1
 90
        2
176
     1
 62
     7
176
     1
 90
        5
176
     1
 90
        0
176
     1
 90
        0
176
     1
290
     0
176
     1
 90
       13
176
     1
 40
0.0
176
     1
 90
        0
176
     1
290
     0
176
     1
290
     1
176
     1
290
     1
176
     1
290
     0
176
     1
290
     0
176
     1
290
     0
176
     1
290
     0
176
     1
290
     0
176
     1
290
     0
176
     1
 90
       50
176
     1
 40
0.0
176
     1
 40
1.0
176
     1
 90
        0
176
     1
 62
   178
420
        0
176
     1
 90
       50
176
     1
 90
        3
176
     1
 62
     5
420
      255
176
     1
290
     0
176
     1
 90
       50
176
     1
 90
       50
176
     1
 90
       50
176
     1
290
     0
176
     1
 90
       50
176
     1
 62
   256
176
     0
 40
1.0
176
     0
 90
        2
176
     1
  1
strokes_ogs.tif
176
     1
290
     0
176
     1
 40
1.0
176
     1
 40
1.0
176
     1
  0
VISUALSTYLE
  5
155C
102
{ACAD_REACTORS
330
1555
102
}
330
1555
100
AcDbVisualStyle
  2
Hidden
 70
     6
177
     3
291
     0
 70
    58
 90
        1
176
     1
 90
        2
176
     1
 90
        2
176
     1
 90
        0
176
     1
 40
0.6
176
     1
 40
30.0
176
     1
 62
     7
420
 16777215
176
     1
 90
        2
176
     1
 90
        2
176
     1
 62
     7
176
     1
 62
   257
176
     1
 90
        2
176
     1
 90
        1
176
     1
 40
40.0
176
     1
 90
        0
176
     1
 62
   257
176
     1
 40
1.0
176
     1
 90
        1
176
     1
 90
        6
176
     1
 90
        2
176
     1
 62
     7
176
     1
 90
        3
176
     1
 90
        0
176
     1
 90
        0
176
     1
290
     0
176
     1
 90
        1
176
     1
 40
0.0
176
     1
 90
        0
176
     1
290
     0
176
     1
290
     1
176
     1
290
     1
176
     1
290
     0
176
     1
290
     0
176
     1
290
     0
176
     1
290
     0
176
     1
290
     0
176
     1
290
     0
176
     1
 90
       50
176
     1
 40
0.0
176
     1
 40
1.0
176
     1
 90
        0
176
     1
 62
   178
420
        0
176
     1
 90
       50
176
     1
 90
        3
176
     1
 62
     5
420
      255
176
     1
290
     0
176
     1
 90
       50
176
     1
 90
       50
176
     1
 90
       50
176
     1
290
     0
176
     1
 90
       50
176
     1
 62
   256
176
     0
 40
1.0
176
     0
 90
        2
176
     1
  1
strokes_ogs.tif
176
     1
290
     0
176
     1
 40
1.0
176
     1
 40
1.0
176
     1
  0
VISUALSTYLE
  5
1566
102
{ACAD_REACTORS
330
1555
102
}
330
1555
100
AcDbVisualStyle
  2
JitterOff
 70
    20
177
     3
291
     1
 70
    58
 90
        2
176
     0
 90
        2
176
     0
 90
        0
176
     0
 90
        0
176
     0
 40
0.6
176
     0
 40
30.0
176
     0
 62
     7
420
 16777215
176
     0
 90
        1
176
     0
 90
        4
176
     0
 62
     7
176
     0
 62
   257
176
     0
 90
        1
176
     0
 90
        1
176
     0
 40
1.0
176
     0
 90
       10
176
     2
 62
     7
176
     0
 40
1.0
176
     0
 90
        1
176
     0
 90
        6
176
     0
 90
        2
176
     0
 62
     7
176
     0
 90
        5
176
     0
 90
        0
176
     0
 90
        0
176
     0
290
     0
176
     0
 90
        1
176
     0
 40
0.0
176
     0
 90
        0
176
     0
290
     0
176
     0
290
     1
176
     0
290
     1
176
     0
290
     0
176
     0
290
     0
176
     0
290
     0
176
     0
290
     0
176
     0
290
     0
176
     0
290
     0
176
     0
 90
       50
176
     0
 40
0.0
176
     0
 40
1.0
176
     0
 90
        0
176
     0
 62
   178
420
        0
176
     0
 90
       50
176
     0
 90
        3
176
     0
 62
     5
420
      255
176
     0
290
     0
176
     0
 90
       50
176
     0
 90
       50
176
     0
 90
       50
176
     0
290
     0
176
     0
 90
       50
176
     0
 62
   256
176
     0
 40
1.0
176
     0
 90
        2
176
     0
  1
strokes_ogs.tif
176
     0
290
     0
176
     0
 40
1.0
176
     0
 40
1.0
176
     0
  0
VISUALSTYLE
  5
1563
102
{ACAD_REACTORS
330
1555
102
}
330
1555
100
AcDbVisualStyle
  2
Linepattern
 70
    14
177
     3
291
     1
 70
    58
 90
        2
176
     1
 90
        2
176
     1
 90
        0
176
     1
 90
        0
176
     1
 40
0.6
176
     1
 40
30.0
176
     1
 62
     7
420
 16777215
176
     1
 90
        1
176
     1
 90
        4
176
     1
 62
     7
176
     1
 62
   257
176
     1
 90
        7
176
     1
 90
        7
176
     1
 40
1.0
176
     1
 90
        8
176
     1
 62
     7
176
     1
 40
1.0
176
     1
 90
        1
176
     1
 90
        6
176
     1
 90
        2
176
     1
 62
     7
176
     1
 90
        5
176
     1
 90
        0
176
     1
 90
        0
176
     1
290
     0
176
     1
 90
        1
176
     1
 40
0.0
176
     1
 90
        0
176
     1
290
     0
176
     1
290
     1
176
     1
290
     1
176
     1
290
     0
176
     1
290
     0
176
     1
290
     0
176
     1
290
     0
176
     1
290
     0
176
     1
290
     0
176
     1
 90
       50
176
     1
 40
0.0
176
     1
 40
1.0
176
     1
 90
        0
176
     1
 62
   178
420
        0
176
     1
 90
       50
176
     1
 90
        3
176
     1
 62
     5
420
      255
176
     1
290
     0
176
     1
 90
       50
176
     1
 90
       50
176
     1
 90
       50
176
     1
290
     0
176
     1
 90
       50
176
     1
 62
   256
176
     0
 40
1.0
176
     0
 90
        2
176
     1
  1
strokes_ogs.tif
176
     1
290
     0
176
     1
 40
1.0
176
     1
 40
1.0
176
     1
  0
VISUALSTYLE
  5
1567
102
{ACAD_REACTORS
330
1555
102
}
330
1555
100
AcDbVisualStyle
  2
OverhangOff
 70
    21
177
     3
291
     1
 70
    58
 90
        2
176
     0
 90
        2
176
     0
 90
        0
176
     0
 90
        0
176
     0
 40
0.6
176
     0
 40
30.0
176
     0
 62
     7
420
 16777215
176
     0
 90
        1
176
     0
 90
        4
176
     0
 62
     7
176
     0
 62
   257
176
     0
 90
        1
176
     0
 90
        1
176
     0
 40
1.0
176
     0
 90
        9
176
     2
 62
     7
176
     0
 40
1.0
176
     0
 90
        1
176
     0
 90
        6
176
     0
 90
        2
176
     0
 62
     7
176
     0
 90
        5
176
     0
 90
        0
176
     0
 90
        0
176
     0
290
     0
176
     0
 90
        1
176
     0
 40
0.0
176
     0
 90
        0
176
     0
290
     0
176
     0
290
     1
176
     0
290
     1
176
     0
290
     0
176
     0
290
     0
176
     0
290
     0
176
     0
290
     0
176
     0
290
     0
176
     0
290
     0
176
     0
 90
       50
176
     0
 40
0.0
176
     0
 40
1.0
176
     0
 90
        0
176
     0
 62
   178
420
        0
176
     0
 90
       50
176
     0
 90
        3
176
     0
 62
     5
420
      255
176
     0
290
     0
176
     0
 90
       50
176
     0
 90
       50
176
     0
 90
       50
176
     0
290
     0
176
     0
 90
       50
176
     0
 62
   256
176
     0
 40
1.0
176
     0
 90
        2
176
     0
  1
strokes_ogs.tif
176
     0
290
     0
176
     0
 40
1.0
176
     0
 40
1.0
176
     0
  0
VISUALSTYLE
  5
155E
102
{ACAD_REACTORS
330
1555
102
}
330
1555
100
AcDbVisualStyle
  2
Realistic
 70
     8
177
     3
291
     0
 70
    58
 90
        2
176
     1
 90
        3
176
     1
 90
        0
176
     1
 90
        2
176
     1
 40
0.6
176
     1
 40
30.0
176
     1
 62
     7
420
 16777215
176
     1
 90
        0
176
     1
 90
        0
176
     1
 62
     7
176
     1
 62
   257
176
     1
 90
        1
176
     1
 90
        1
176
     1
 40
1.0
176
     1
 90
        8
176
     1
 62
   257
176
     1
 40
1.0
176
     1
 90
        1
176
     1
 90
        6
176
     1
 90
        2
176
     1
 62
     7
176
     1
 90
        3
176
     1
 90
        0
176
     1
 90
        0
176
     1
290
     0
176
     1
 90
       13
176
     1
 40
0.0
176
     1
 90
        0
176
     1
290
     0
176
     1
290
     1
176
     1
290
     1
176
     1
290
     0
176
     1
290
     0
176
     1
290
     0
176
     1
290
     0
176
     1
290
     0
176
     1
290
     0
176
     1
 90
       50
176
     1
 40
0.0
176
     1
 40
1.0
176
     1
 90
        0
176
     1
 62
   178
420
        0
176
     1
 90
       50
176
     1
 90
        3
176
     1
 62
     5
420
      255
176
     1
290
     0
176
     1
 90
       50
176
     1
 90
       50
176
     1
 90
       50
176
     1
290
     0
176
     1
 90
       50
176
     1
 62
   256
176
     0
 40
1.0
176
     0
 90
        2
176
     1
  1
strokes_ogs.tif
176
     1
290
     0
176
     1
 40
1.0
176
     1
 40
1.0
176
     1
  0
VISUALSTYLE
  5
156D
102
{ACAD_REACTORS
330
1555
102
}
330
1555
100
AcDbVisualStyle
  2
Shaded
 70
    27
177
     3
291
     0
 70
    58
 90
        2
176
     1
 90
        2
176
     1
 90
        1
176
     1
 90
        2
176
     1
 40
0.6
176
     1
 40
30.0
176
     1
 62
     7
420
 16777215
176
     1
 90
        0
176
     1
 90
        4
176
     1
 62
     7
176
     1
 62
   257
176
     1
 90
        1
176
     1
 90
        1
176
     1
 40
1.0
176
     1
 90
        8
176
     1
 62
   257
176
     1
 40
1.0
176
     1
 90
        1
176
     1
 90
        6
176
     1
 90
        2
176
     1
 62
     8
420
  7895160
176
     1
 90
        3
176
     1
 90
        0
176
     1
 90
        0
176
     1
290
     0
176
     1
 90
        5
176
     1
 40
0.0
176
     1
 90
        0
176
     1
290
     0
176
     1
290
     1
176
     1
290
     1
176
     1
290
     0
176
     1
290
     0
176
     1
290
     0
176
     1
290
     0
176
     1
290
     0
176
     1
290
     0
176
     1
 90
       50
176
     1
 40
0.0
176
     1
 40
1.0
176
     1
 90
        0
176
     1
 62
   178
420
        0
176
     1
 90
       50
176
     1
 90
        3
176
     1
 62
     5
420
      255
176
     1
290
     0
176
     1
 90
       50
176
     1
 90
       50
176
     1
 90
       50
176
     1
290
     0
176
     1
 90
       50
176
     1
 62
   256
176
     0
 40
1.0
176
     0
 90
        2
176
     1
  1
strokes_ogs.tif
176
     1
290
     0
176
     1
 40
1.0
176
     1
 40
1.0
176
     1
  0
VISUALSTYLE
  5
156C
102
{ACAD_REACTORS
330
1555
102
}
330
1555
100
AcDbVisualStyle
  2
Shaded with edges
 70
    26
177
     3
291
     0
 70
    58
 90
        2
176
     1
 90
        2
176
     1
 90
        1
176
     1
 90
        2
176
     1
 40
0.6
176
     1
 40
30.0
176
     1
 62
     7
420
 16777215
176
     1
 90
        1
176
     1
 90
       10
176
     1
 62
     7
176
     1
 62
   257
176
     1
 90
        2
176
     1
 90
        1
176
     1
 40
1.0
176
     1
 90
        8
176
     1
 62
   257
176
     1
 40
1.0
176
     1
 90
        1
176
     1
 90
        6
176
     1
 90
        2
176
     1
 62
     7
176
     1
 90
        3
176
     1
 90
        0
176
     1
 90
        0
176
     1
290
     0
176
     1
 90
        5
176
     1
 40
0.0
176
     1
 90
        0
176
     1
290
     0
176
     1
290
     1
176
     1
290
     1
176
     1
290
     0
176
     1
290
     0
176
     1
290
     0
176
     1
290
     0
176
     1
290
     0
176
     1
290
     0
176
     1
 90
       50
176
     1
 40
0.0
176
     1
 40
1.0
176
     1
 90
        0
176
     1
 62
   178
420
        0
176
     1
 90
       50
176
     1
 90
        3
176
     1
 62
     5
420
      255
176
     1
290
     0
176
     1
 90
       50
176
     1
 90
       50
176
     1
 90
       50
176
     1
290
     0
176
     1
 90
       50
176
     1
 62
   256
176
     0
 40
1.0
176
     0
 90
        2
176
     1
  1
strokes_ogs.tif
176
     1
290
     0
176
     1
 40
1.0
176
     1
 40
1.0
176
     1
  0
VISUALSTYLE
  5
1569
102
{ACAD_REACTORS
330
1555
102
}
330
1555
100
AcDbVisualStyle
  2
Shades of Gray
 70
    23
177
     3
291
     0
 70
    58
 90
        2
176
     1
 90
        2
176
     1
 90
        3
176
     1
 90
        0
176
     1
 40
0.6
176
     1
 40
30.0
176
     1
 62
     7
420
 16777215
176
     1
 90
        2
176
     1
 90
        2
176
     1
 62
     7
176
     1
 62
     7
176
     1
 90
        1
176
     1
 90
        1
176
     1
 40
40.0
176
     1
 90
        8
176
     1
 62
     7
176
     1
 40
1.0
176
     1
 90
        1
176
     1
 90
        6
176
     1
 90
        2
176
     1
 62
     7
176
     1
 90
        3
176
     1
 90
        0
176
     1
 90
        0
176
     1
290
     0
176
     1
 90
        1
176
     1
 40
0.0
176
     1
 90
        0
176
     1
290
     0
176
     1
290
     1
176
     1
290
     1
176
     1
290
     0
176
     1
290
     0
176
     1
290
     0
176
     1
290
     0
176
     1
290
     0
176
     1
290
     0
176
     1
 90
       50
176
     1
 40
0.0
176
     1
 40
1.0
176
     1
 90
        0
176
     1
 62
   178
420
        0
176
     1
 90
       50
176
     1
 90
        3
176
     1
 62
     5
420
      255
176
     1
290
     0
176
     1
 90
       50
176
     1
 90
       50
176
     1
 90
       50
176
     1
290
     0
176
     1
 90
       50
176
     1
 62
   256
176
     0
 40
1.0
176
     0
 90
        2
176
     1
  1
strokes_ogs.tif
176
     1
290
     0
176
     1
 40
1.0
176
     1
 40
1.0
176
     1
  0
VISUALSTYLE
  5
156A
102
{ACAD_REACTORS
330
1555
102
}
330
1555
100
AcDbVisualStyle
  2
Sketchy
 70
    24
177
     3
291
     0
 70
    58
 90
        1
176
     1
 90
        2
176
     1
 90
        2
176
     1
 90
        0
176
     1
 40
0.6
176
     1
 40
30.0
176
     1
 62
     7
420
 16777215
176
     1
 90
        2
176
     1
 90
        2
176
     1
 62
     7
176
     1
 62
     7
176
     1
 90
        1
176
     1
 90
        1
176
     1
 40
40.0
176
     1
 90
       11
176
     1
 62
     7
176
     1
 40
1.0
176
     1
 90
        1
176
     1
 90
        6
176
     1
 90
        2
176
     1
 62
     7
176
     1
 90
        6
176
     1
 90
        0
176
     1
 90
        0
176
     1
290
     0
176
     1
 90
        1
176
     1
 40
0.0
176
     1
 90
        0
176
     1
290
     0
176
     1
290
     1
176
     1
290
     1
176
     1
290
     0
176
     1
290
     0
176
     1
290
     0
176
     1
290
     0
176
     1
290
     0
176
     1
290
     0
176
     1
 90
       50
176
     1
 40
0.0
176
     1
 40
1.0
176
     1
 90
        0
176
     1
 62
   178
420
        0
176
     1
 90
       50
176
     1
 90
        3
176
     1
 62
     5
420
      255
176
     1
290
     0
176
     1
 90
       50
176
     1
 90
       50
176
     1
 90
       50
176
     1
290
     0
176
     1
 90
       50
176
     1
 62
   256
176
     0
 40
1.0
176
     0
 90
        2
176
     1
  1
strokes_ogs.tif
176
     1
290
     0
176
     1
 40
1.0
176
     1
 40
1.0
176
     1
  0
VISUALSTYLE
  5
1562
102
{ACAD_REACTORS
330
1555
102
}
330
1555
100
AcDbVisualStyle
  2
Thicken
 70
    13
177
     3
291
     1
 70
    58
 90
        2
176
     1
 90
        2
176
     1
 90
        0
176
     1
 90
        0
176
     1
 40
0.6
176
     1
 40
30.0
176
     1
 62
     7
420
 16777215
176
     1
 90
        1
176
     1
 90
        4
176
     1
 62
     7
176
     1
 62
   257
176
     1
 90
        1
176
     1
 90
        1
176
     1
 40
1.0
176
     1
 90
       12
176
     1
 62
     7
176
     1
 40
1.0
176
     1
 90
        1
176
     1
 90
        6
176
     1
 90
        2
176
     1
 62
     7
176
     1
 90
        5
176
     1
 90
        0
176
     1
 90
        0
176
     1
290
     0
176
     1
 90
        1
176
     1
 40
0.0
176
     1
 90
        0
176
     1
290
     0
176
     1
290
     1
176
     1
290
     1
176
     1
290
     0
176
     1
290
     0
176
     1
290
     0
176
     1
290
     0
176
     1
290
     0
176
     1
290
     0
176
     1
 90
       50
176
     1
 40
0.0
176
     1
 40
1.0
176
     1
 90
        0
176
     1
 62
   178
420
        0
176
     1
 90
       50
176
     1
 90
        3
176
     1
 62
     5
420
      255
176
     1
290
     0
176
     1
 90
       50
176
     1
 90
       50
176
     1
 90
       50
176
     1
290
     0
176
     1
 90
       50
176
     1
 62
   256
176
     0
 40
1.0
176
     0
 90
        2
176
     1
  1
strokes_ogs.tif
176
     1
290
     0
176
     1
 40
1.0
176
     1
 40
1.0
176
     1
  0
VISUALSTYLE
  5
155B
102
{ACAD_REACTORS
330
1555
102
}
330
1555
100
AcDbVisualStyle
  2
Wireframe
 70
     5
177
     3
291
     0
 70
    58
 90
        0
176
     1
 90
        2
176
     1
 90
        0
176
     1
 90
        0
176
     1
 40
0.6
176
     1
 40
30.0
176
     1
 62
     7
420
 16777215
176
     1
 90
        1
176
     1
 90
        4
176
     1
 62
     7
176
     1
 62
   257
176
     1
 90
        1
176
     1
 90
        1
176
     1
 40
1.0
176
     1
 90
        0
176
     1
 62
   257
176
     1
 40
1.0
176
     1
 90
        1
176
     1
 90
        6
176
     1
 90
        2
176
     1
 62
     7
176
     1
 90
        3
176
     1
 90
        0
176
     1
 90
        0
176
     1
290
     0
176
     1
 90
        1
176
     1
 40
0.0
176
     1
 90
        0
176
     1
290
     0
176
     1
290
     1
176
     1
290
     1
176
     1
290
     0
176
     1
290
     0
176
     1
290
     0
176
     1
290
     0
176
     1
290
     0
176
     1
290
     0
176
     1
 90
       50
176
     1
 40
0.0
176
     1
 40
1.0
176
     1
 90
        0
176
     1
 62
   178
420
        0
176
     1
 90
       50
176
     1
 90
        3
176
     1
 62
     5
420
      255
176
     1
290
     0
176
     1
 90
       50
176
     1
 90
       50
176
     1
 90
       50
176
     1
290
     0
176
     1
 90
       50
176
     1
 62
   256
176
     0
 40
1.0
176
     0
 90
        2
176
     1
  1
strokes_ogs.tif
176
     1
290
     0
176
     1
 40
1.0
176
     1
 40
1.0
176
     1
  0
VISUALSTYLE
  5
156B
102
{ACAD_REACTORS
330
1555
102
}
330
1555
100
AcDbVisualStyle
  2
X-Ray
 70
    25
177
     3
291
     0
 70
    58
 90
        2
176
     1
 90
        2
176
     1
 90
        1
176
     1
 90
        1
176
     1
 40
0.5
176
     1
 40
30.0
176
     1
 62
     7
420
 16777215
176
     1
 90
        1
176
     1
 90
        0
176
     1
 62
     7
176
     1
 62
   257
176
     1
 90
        1
176
     1
 90
        1
176
     1
 40
1.0
176
     1
 90
        8
176
     1
 62
     7
176
     1
 40
1.0
176
     1
 90
        1
176
     1
 90
        6
176
     1
 90
        2
176
     1
 62
     7
176
     1
 90
        3
176
     1
 90
        0
176
     1
 90
        0
176
     1
290
     0
176
     1
 90
       13
176
     1
 40
0.0
176
     1
 90
        0
176
     1
290
     0
176
     1
290
     1
176
     1
290
     1
176
     1
290
     0
176
     1
290
     0
176
     1
290
     0
176
     1
290
     0
176
     1
290
     0
176
     1
290
     0
176
     1
 90
       50
176
     1
 40
0.0
176
     1
 40
1.0
176
     1
 90
        0
176
     1
 62
   178
420
        0
176
     1
 90
       50
176
     1
 90
        3
176
     1
 62
     5
420
      255
176
     1
290
     0
176
     1
 90
       50
176
     1
 90
       50
176
     1
 90
       50
176
     1
290
     0
176
     1
 90
       50
176
     1
 62
   256
176
     0
 40
1.0
176
     0
 90
        2
176
     1
  1
strokes_ogs.tif
176
     1
290
     0
176
     1
 40
1.0
176
     1
 40
1.0
176
     1
  0
DICTIONARYVAR
  5
16DC
102
{ACAD_REACTORS
330
16DB
102
}
330
16DB
100
DictionaryVariables
280
     0
  1
1:1
  0
DICTIONARYVAR
  5
16E1
102
{ACAD_REACTORS
330
16DB
102
}
330
16DB
100
DictionaryVariables
280
     0
  1
Standard
  0
DICTIONARYVAR
  5
16E0
102
{ACAD_REACTORS
330
16DB
102
}
330
16DB
100
DictionaryVariables
280
     0
  1
Standard
  0
XRECORD
  5
159C
102
{ACAD_REACTORS
330
159A
102
}
330
159A
100
AcDbXrecord
280
     1
1000
#ffffff
  0
XRECORD
  5
159D
102
{ACAD_REACTORS
330
159A
102
}
330
159A
100
AcDbXrecord
280
     1
1000
FullColor
  0
XRECORD
  5
159E
102
{ACAD_REACTORS
330
159A
102
}
330
159A
100
AcDbXrecord
280
     1
290
     1
  0
XRECORD
  5
159F
102
{ACAD_REACTORS
330
159A
102
}
330
159A
100
AcDbXrecord
280
     1
290
     1
  0
XRECORD
  5
15A0
102
{ACAD_REACTORS
330
159A
102
}
330
159A
100
AcDbXrecord
280
     1
290
     1
  0
XRECORD
  5
15A1
102
{ACAD_REACTORS
330
159A
102
}
330
159A
100
AcDbXrecord
280
     1
290
     1
  0
XRECORD
  5
15A2
102
{ACAD_REACTORS
330
159A
102
}
330
159A
100
AcDbXrecord
280
     1
1000
auto
  0
XRECORD
  5
15A3
102
{ACAD_REACTORS
330
159A
102
}
330
159A
100
AcDbXrecord
280
     1
1000
auto
  0
XRECORD
  5
15A4
102
{ACAD_REACTORS
330
159A
102
}
330
159A
100
AcDbXrecord
280
     1
1000
auto
  0
XRECORD
  5
15A5
102
{ACAD_REACTORS
330
159A
102
}
330
159A
100
AcDbXrecord
280
     1
1000
auto
  0
XRECORD
  5
15A6
102
{ACAD_REACTORS
330
159A
102
}
330
159A
100
AcDbXrecord
280
     1
1000
auto
  0
XRECORD
  5
15A7
102
{ACAD_REACTORS
330
159A
102
}
330
159A
100
AcDbXrecord
280
     1
1000
auto
  0
XRECORD
  5
15A8
102
{ACAD_REACTORS
330
159A
102
}
330
159A
100
AcDbXrecord
280
     1
1000
auto
  0
XRECORD
  5
15A9
102
{ACAD_REACTORS
330
159A
102
}
330
159A
100
AcDbXrecord
280
     1
1000
auto
  0
XRECORD
  5
15AA
102
{ACAD_REACTORS
330
159A
102
}
330
159A
100
AcDbXrecord
280
     1
290
     0
  0
XRECORD
  5
15AB
102
{ACAD_REACTORS
330
159A
102
}
330
159A
100
AcDbXrecord
280
     1
290
     0
  0
XRECORD
  5
15AC
102
{ACAD_REACTORS
330
159A
102
}
330
159A
100
AcDbXrecord
280
     1
290
     0
  0
XRECORD
  5
15AD
102
{ACAD_REACTORS
330
159A
102
}
330
159A
100
AcDbXrecord
280
     1
290
     0
  0
XRECORD
  5
15AE
102
{ACAD_REACTORS
330
159A
102
}
330
159A
100
AcDbXrecord
280
     1
 90
        0
  0
XRECORD
  5
15AF
102
{ACAD_REACTORS
330
159A
102
}
330
159A
100
AcDbXrecord
280
     1
 90
        0
  0
XRECORD
  5
15B0
102
{ACAD_REACTORS
330
159A
102
}
330
159A
100
AcDbXrecord
280
     1
 90
        0
  0
XRECORD
  5
15B1
102
{ACAD_REACTORS
330
159A
102
}
330
159A
100
AcDbXrecord
280
     1
 90
        0
  0
XRECORD
  5
15B2
102
{ACAD_REACTORS
330
159A
102
}
330
159A
100
AcDbXrecord
280
     1
1000
auto
  0
XRECORD
  5
15B3
102
{ACAD_REACTORS
330
159A
102
}
330
159A
100
AcDbXrecord
280
     1
1000
auto
  0
XRECORD
  5
15B4
102
{ACAD_REACTORS
330
159A
102
}
330
159A
100
AcDbXrecord
280
     1
1000
auto
  0
XRECORD
  5
15B5
102
{ACAD_REACTORS
330
159A
102
}
330
159A
100
AcDbXrecord
280
     1
1000
auto
  0
XRECORD
  5
15B6
102
{ACAD_REACTORS
330
159A
102
}
330
159A
100
AcDbXrecord
280
     1
1000
auto
  0
XRECORD
  5
15B7
102
{ACAD_REACTORS
330
159A
102
}
330
159A
100
AcDbXrecord
280
     1
1000
auto
  0
XRECORD
  5
15B8
102
{ACAD_REACTORS
330
159A
102
}
330
159A
100
AcDbXrecord
280
     1
1000
auto
  0
XRECORD
  5
15B9
102
{ACAD_REACTORS
330
159A
102
}
330
159A
100
AcDbXrecord
280
     1
1000
auto
  0
XRECORD
  5
15BA
102
{ACAD_REACTORS
330
159A
102
}
330
159A
100
AcDbXrecord
280
     1
 90
        1
  0
XRECORD
  5
15BB
102
{ACAD_REACTORS
330
159A
102
}
330
159A
100
AcDbXrecord
280
     1
 40
10.0
  0
XRECORD
  5
15BC
102
{ACAD_REACTORS
330
159A
102
}
330
159A
100
AcDbXrecord
280
     1
 40
10.0
  0
XRECORD
  5
15BD
102
{ACAD_REACTORS
330
159A
102
}
330
159A
100
AcDbXrecord
280
     1
 40
10.0
  0
XRECORD
  5
15BE
102
{ACAD_REACTORS
330
159A
102
}
330
159A
100
AcDbXrecord
280
     1
 40
10.0
  0
XRECORD
  5
15BF
102
{ACAD_REACTORS
330
159A
102
}
330
159A
100
AcDbXrecord
280
     1
290
     0
  0
XRECORD
  5
15C0
102
{ACAD_REACTORS
330
159A
102
}
330
159A
100
AcDbXrecord
280
     1
 90
        1
  0
XRECORD
  5
15C1
102
{ACAD_REACTORS
330
159A
102
}
330
159A
100
AcDbXrecord
280
     1
 40
-83.51536100000015
  0
XRECORD
  5
15C2
102
{ACAD_REACTORS
330
159A
102
}
330
159A
100
AcDbXrecord
280
     1
 40
-85.78946027487542
  0
XRECORD
  5
15C3
102
{ACAD_REACTORS
330
159A
102
}
330
159A
100
AcDbXrecord
280
     1
1000
Portrait
  0
XRECORD
  5
15C4
102
{ACAD_REACTORS
330
159A
102
}
330
159A
100
AcDbXrecord
280
     1
 40
297.0
  0
XRECORD
  5
15C5
102
{ACAD_REACTORS
330
159A
102
}
330
159A
100
AcDbXrecord
280
     1
 40
210.0
  0
XRECORD
  5
15C6
102
{ACAD_REACTORS
330
159A
102
}
330
159A
100
AcDbXrecord
280
     1
1000
1:1
  0
XRECORD
  5
15C7
102
{ACAD_REACTORS
330
159A
102
}
330
159A
100
AcDbXrecord
280
     1
290
     1
  0
XRECORD
  5
15C8
102
{ACAD_REACTORS
330
159A
102
}
330
159A
100
AcDbXrecord
280
     1
1000
3.9.1
  0
XRECORD
  5
15C9
102
{ACAD_REACTORS
330
159A
102
}
330
159A
100
AcDbXrecord
280
     1
 90
        4
  0
DICTIONARY
  5
16DD
330
1595
100
AcDbDictionary
280
     1
281
     1
  3
ACAD_ROUNDTRIP_2008_TABLESTYLE_CELLSTYLEMAP
360
16DE
  0
CELLSTYLEMAP
  5
16DE
102
{ACAD_REACTORS
330
16DD
102
}
330
16DD
100
AcDbCellStyleMap
 90
        3
300
CELLSTYLE
  1
TABLEFORMAT_BEGIN
 90
        5
170
     1
 91
        0
 92
    32768
 62
   257
 93
        1
300
CONTENTFORMAT
  1
CONTENTFORMAT_BEGIN
 90
        0
 91
        0
 92
        4
 93
        0
300

 40
0.0
140
1.0
 94
        5
 62
     0
340
153D
144
0.25
309
CONTENTFORMAT_END
171
     1
301
MARGIN
  1
CELLMARGIN_BEGIN
 40
0.06
 40
0.06
 40
0.06
 40
0.06
 40
0.06
 40
0.06
309
CELLMARGIN_END
 94
        6
 95
        1
302
GRIDFORMAT
  1
GRIDFORMAT_BEGIN
 90
        0
 91
        1
 62
     0
 92
       -2
340
153F
 93
        0
 40
0.045
309
GRIDFORMAT_END
 95
        2
302
GRIDFORMAT
  1
GRIDFORMAT_BEGIN
 90
        0
 91
        1
 62
     0
 92
       -2
340
153F
 93
        0
 40
0.045
309
GRIDFORMAT_END
 95
        4
302
GRIDFORMAT
  1
GRIDFORMAT_BEGIN
 90
        0
 91
        1
 62
     0
 92
       -2
340
153F
 93
        0
 40
0.045
309
GRIDFORMAT_END
 95
        8
302
GRIDFORMAT
  1
GRIDFORMAT_BEGIN
 90
        0
 91
        1
 62
     0
 92
       -2
340
153F
 93
        0
 40
0.045
309
GRIDFORMAT_END
 95
       16
302
GRIDFORMAT
  1
GRIDFORMAT_BEGIN
 90
        0
 91
        1
 62
     0
 92
       -2
340
153F
 93
        0
 40
0.045
309
GRIDFORMAT_END
 95
       32
302
GRIDFORMAT
  1
GRIDFORMAT_BEGIN
 90
        0
 91
        1
 62
     0
 92
       -2
340
153F
 93
        0
 40
0.045
309
GRIDFORMAT_END
309
TABLEFORMAT_END
  1
CELLSTYLE_BEGIN
 90
        1
 91
        1
300
_TITLE
309
CELLSTYLE_END
300
CELLSTYLE
  1
TABLEFORMAT_BEGIN
 90
        5
170
     1
 91
        0
 92
        0
 62
   257
 93
        1
300
CONTENTFORMAT
  1
CONTENTFORMAT_BEGIN
 90
        0
 91
        0
 92
        4
 93
        0
300

 40
0.0
140
1.0
 94
        5
 62
     0
340
153D
144
0.18
309
CONTENTFORMAT_END
171
     1
301
MARGIN
  1
CELLMARGIN_BEGIN
 40
0.06
 40
0.06
 40
0.06
 40
0.06
 40
0.06
 40
0.06
309
CELLMARGIN_END
 94
        6
 95
        1
302
GRIDFORMAT
  1
GRIDFORMAT_BEGIN
 90
        0
 91
        1
 62
     0
 92
       -2
340
153F
 93
        0
 40
0.045
309
GRIDFORMAT_END
 95
        2
302
GRIDFORMAT
  1
GRIDFORMAT_BEGIN
 90
        0
 91
        1
 62
     0
 92
       -2
340
153F
 93
        0
 40
0.045
309
GRIDFORMAT_END
 95
        4
302
GRIDFORMAT
  1
GRIDFORMAT_BEGIN
 90
        0
 91
        1
 62
     0
 92
       -2
340
153F
 93
        0
 40
0.045
309
GRIDFORMAT_END
 95
        8
302
GRIDFORMAT
  1
GRIDFORMAT_BEGIN
 90
        0
 91
        1
 62
     0
 92
       -2
340
153F
 93
        0
 40
0.045
309
GRIDFORMAT_END
 95
       16
302
GRIDFORMAT
  1
GRIDFORMAT_BEGIN
 90
        0
 91
        1
 62
     0
 92
       -2
340
153F
 93
        0
 40
0.045
309
GRIDFORMAT_END
 95
       32
302
GRIDFORMAT
  1
GRIDFORMAT_BEGIN
 90
        0
 91
        1
 62
     0
 92
       -2
340
153F
 93
        0
 40
0.045
309
GRIDFORMAT_END
309
TABLEFORMAT_END
  1
CELLSTYLE_BEGIN
 90
        2
 91
        1
300
_HEADER
309
CELLSTYLE_END
300
CELLSTYLE
  1
TABLEFORMAT_BEGIN
 90
        5
170
     1
 91
        0
 92
        0
 62
   257
 93
        1
300
CONTENTFORMAT
  1
CONTENTFORMAT_BEGIN
 90
        0
 91
        0
 92
        4
 93
        0
300

 40
0.0
140
1.0
 94
        2
 62
     0
340
153D
144
0.18
309
CONTENTFORMAT_END
171
     1
301
MARGIN
  1
CELLMARGIN_BEGIN
 40
0.06
 40
0.06
 40
0.06
 40
0.06
 40
0.06
 40
0.06
309
CELLMARGIN_END
 94
        6
 95
        1
302
GRIDFORMAT
  1
GRIDFORMAT_BEGIN
 90
        0
 91
        1
 62
     0
 92
       -2
340
153F
 93
        0
 40
0.045
309
GRIDFORMAT_END
 95
        2
302
GRIDFORMAT
  1
GRIDFORMAT_BEGIN
 90
        0
 91
        1
 62
     0
 92
       -2
340
153F
 93
        0
 40
0.045
309
GRIDFORMAT_END
 95
        4
302
GRIDFORMAT
  1
GRIDFORMAT_BEGIN
 90
        0
 91
        1
 62
     0
 92
       -2
340
153F
 93
        0
 40
0.045
309
GRIDFORMAT_END
 95
        8
302
GRIDFORMAT
  1
GRIDFORMAT_BEGIN
 90
        0
 91
        1
 62
     0
 92
       -2
340
153F
 93
        0
 40
0.045
309
GRIDFORMAT_END
 95
       16
302
GRIDFORMAT
  1
GRIDFORMAT_BEGIN
 90
        0
 91
        1
 62
     0
 92
       -2
340
153F
 93
        0
 40
0.045
309
GRIDFORMAT_END
 95
       32
302
GRIDFORMAT
  1
GRIDFORMAT_BEGIN
 90
        0
 91
        1
 62
     0
 92
       -2
340
153F
 93
        0
 40
0.045
309
GRIDFORMAT_END
309
TABLEFORMAT_END
  1
CELLSTYLE_BEGIN
 90
        3
 91
        2
300
_DATA
309
CELLSTYLE_END
  0
ENDSEC
  0
EOF
